  0
SECTION
  2
HEADER
  9
$ACADVER
  1
AC1024
  9
$ACADMAINTVER
 70
     6
  9
$DWGCODEPAGE
  3
ANSI_932
  9
$LASTSAVEDBY
  1
Schuyler
  9
$INSBASE
 10
0.0
 20
0.0
 30
0.0
  9
$EXTMIN
 10
214.836885864041
 20
-5.999676172326758
 30
0.0
  9
$EXTMAX
 10
222.8671132055122
 20
0.6807462179658899
 30
0.0
  9
$LIMMIN
 10
0.0
 20
0.0
  9
$LIMMAX
 10
17.0
 20
11.0
  9
$ORTHOMODE
 70
     0
  9
$REGENMODE
 70
     1
  9
$FILLMODE
 70
     1
  9
$QTEXTMODE
 70
     0
  9
$MIRRTEXT
 70
     0
  9
$LTSCALE
 40
3.2
  9
$ATTMODE
 70
     1
  9
$TEXTSIZE
 40
0.1
  9
$TRACEWID
 40
0.05
  9
$TEXTSTYLE
  7
STANDARD
  9
$CLAYER
  8
D
  9
$CELTYPE
  6
BYLAYER
  9
$CECOLOR
 62
   256
  9
$CELTSCALE
 40
1.0
  9
$DISPSILH
 70
     0
  9
$DIMSCALE
 40
0.4
  9
$DIMASZ
 40
0.12
  9
$DIMEXO
 40
0.1
  9
$DIMDLI
 40
0.22
  9
$DIMRND
 40
0.0
  9
$DIMDLE
 40
0.0
  9
$DIMEXE
 40
0.12
  9
$DIMTP
 40
0.0
  9
$DIMTM
 40
0.0
  9
$DIMTXT
 40
0.1
  9
$DIMCEN
 40
0.0
  9
$DIMTSZ
 40
0.0
  9
$DIMTOL
 70
     0
  9
$DIMLIM
 70
     0
  9
$DIMTIH
 70
     0
  9
$DIMTOH
 70
     0
  9
$DIMSE1
 70
     0
  9
$DIMSE2
 70
     0
  9
$DIMTAD
 70
     0
  9
$DIMZIN
 70
     3
  9
$DIMBLK
  1

  9
$DIMASO
 70
     1
  9
$DIMSHO
 70
     0
  9
$DIMPOST
  1

  9
$DIMAPOST
  1

  9
$DIMALT
 70
     0
  9
$DIMALTD
 70
     2
  9
$DIMALTF
 40
25.4
  9
$DIMLFAC
 40
1.0
  9
$DIMTOFL
 70
     0
  9
$DIMTVP
 40
0.0
  9
$DIMTIX
 70
     0
  9
$DIMSOXD
 70
     0
  9
$DIMSAH
 70
     0
  9
$DIMBLK1
  1

  9
$DIMBLK2
  1

  9
$DIMSTYLE
  2
TPS3
  9
$DIMCLRD
 70
     0
  9
$DIMCLRE
 70
     0
  9
$DIMCLRT
 70
     0
  9
$DIMTFAC
 40
1.0
  9
$DIMGAP
 40
0.09
  9
$DIMJUST
 70
     0
  9
$DIMSD1
 70
     0
  9
$DIMSD2
 70
     0
  9
$DIMTOLJ
 70
     1
  9
$DIMTZIN
 70
     3
  9
$DIMALTZ
 70
     0
  9
$DIMALTTZ
 70
     0
  9
$DIMUPT
 70
     0
  9
$DIMDEC
 70
     3
  9
$DIMTDEC
 70
     3
  9
$DIMALTU
 70
     2
  9
$DIMALTTD
 70
     2
  9
$DIMTXSTY
  7
STANDARD
  9
$DIMAUNIT
 70
     0
  9
$DIMADEC
 70
     0
  9
$DIMALTRND
 40
0.0
  9
$DIMAZIN
 70
     0
  9
$DIMDSEP
 70
    46
  9
$DIMATFIT
 70
     3
  9
$DIMFRAC
 70
     0
  9
$DIMLDRBLK
  1

  9
$DIMLUNIT
 70
     2
  9
$DIMLWD
 70
    -2
  9
$DIMLWE
 70
    -2
  9
$DIMTMOVE
 70
     0
  9
$DIMFXL
 40
1.0
  9
$DIMFXLON
 70
     0
  9
$DIMJOGANG
 40
0.7853981633974483
  9
$DIMTFILL
 70
     0
  9
$DIMTFILLCLR
 70
     0
  9
$DIMARCSYM
 70
     0
  9
$DIMLTYPE
  6

  9
$DIMLTEX1
  6

  9
$DIMLTEX2
  6

  9
$DIMTXTDIRECTION
 70
     0
  9
$LUNITS
 70
     2
  9
$LUPREC
 70
     3
  9
$SKETCHINC
 40
0.1
  9
$FILLETRAD
 40
0.0
  9
$AUNITS
 70
     0
  9
$AUPREC
 70
     1
  9
$MENU
  1
ACAD
  9
$ELEVATION
 40
0.0
  9
$PELEVATION
 40
0.0
  9
$THICKNESS
 40
0.0
  9
$LIMCHECK
 70
     0
  9
$CHAMFERA
 40
0.0
  9
$CHAMFERB
 40
0.0
  9
$CHAMFERC
 40
0.0
  9
$CHAMFERD
 40
0.0
  9
$SKPOLY
 70
     0
  9
$TDCREATE
 40
2455057.585952812
  9
$TDUCREATE
 40
2455057.752619480
  9
$TDUPDATE
 40
2455849.023621459
  9
$TDUUPDATE
 40
2455849.190288125
  9
$TDINDWG
 40
10.0363235764
  9
$TDUSRTIMER
 40
10.0363235764
  9
$USRTIMER
 70
     1
  9
$ANGBASE
 50
0.0
  9
$ANGDIR
 70
     0
  9
$PDMODE
 70
     3
  9
$PDSIZE
 40
0.02
  9
$PLINEWID
 40
0.0
  9
$SPLFRAME
 70
     0
  9
$SPLINETYPE
 70
     6
  9
$SPLINESEGS
 70
     8
  9
$HANDSEED
  5
1479
  9
$SURFTAB1
 70
     6
  9
$SURFTAB2
 70
     6
  9
$SURFTYPE
 70
     6
  9
$SURFU
 70
     6
  9
$SURFV
 70
     6
  9
$UCSBASE
  2

  9
$UCSNAME
  2

  9
$UCSORG
 10
217.0637956006614
 20
-1.390165411011395
 30
0.0
  9
$UCSXDIR
 10
1.0
 20
0.0
 30
0.0
  9
$UCSYDIR
 10
0.0
 20
1.0
 30
0.0
  9
$UCSORTHOREF
  2

  9
$UCSORTHOVIEW
 70
     0
  9
$UCSORGTOP
 10
0.0
 20
0.0
 30
0.0
  9
$UCSORGBOTTOM
 10
0.0
 20
0.0
 30
0.0
  9
$UCSORGLEFT
 10
0.0
 20
0.0
 30
0.0
  9
$UCSORGRIGHT
 10
0.0
 20
0.0
 30
0.0
  9
$UCSORGFRONT
 10
0.0
 20
0.0
 30
0.0
  9
$UCSORGBACK
 10
0.0
 20
0.0
 30
0.0
  9
$PUCSBASE
  2

  9
$PUCSNAME
  2

  9
$PUCSORG
 10
0.0
 20
0.0
 30
0.0
  9
$PUCSXDIR
 10
1.0
 20
0.0
 30
0.0
  9
$PUCSYDIR
 10
0.0
 20
1.0
 30
0.0
  9
$PUCSORTHOREF
  2

  9
$PUCSORTHOVIEW
 70
     0
  9
$PUCSORGTOP
 10
0.0
 20
0.0
 30
0.0
  9
$PUCSORGBOTTOM
 10
0.0
 20
0.0
 30
0.0
  9
$PUCSORGLEFT
 10
0.0
 20
0.0
 30
0.0
  9
$PUCSORGRIGHT
 10
0.0
 20
0.0
 30
0.0
  9
$PUCSORGFRONT
 10
0.0
 20
0.0
 30
0.0
  9
$PUCSORGBACK
 10
0.0
 20
0.0
 30
0.0
  9
$USERI1
 70
     0
  9
$USERI2
 70
     0
  9
$USERI3
 70
     0
  9
$USERI4
 70
     0
  9
$USERI5
 70
     0
  9
$USERR1
 40
0.0
  9
$USERR2
 40
0.0
  9
$USERR3
 40
0.0
  9
$USERR4
 40
0.0
  9
$USERR5
 40
0.0
  9
$WORLDVIEW
 70
     1
  9
$SHADEDGE
 70
     3
  9
$SHADEDIF
 70
    70
  9
$TILEMODE
 70
     1
  9
$MAXACTVP
 70
    16
  9
$PINSBASE
 10
0.0
 20
0.0
 30
0.0
  9
$PLIMCHECK
 70
     0
  9
$PEXTMIN
 10
1.000000000000000E+20
 20
1.000000000000000E+20
 30
1.000000000000000E+20
  9
$PEXTMAX
 10
-1.000000000000000E+20
 20
-1.000000000000000E+20
 30
-1.000000000000000E+20
  9
$PLIMMIN
 10
0.0
 20
0.0
  9
$PLIMMAX
 10
12.0
 20
9.0
  9
$UNITMODE
 70
     0
  9
$VISRETAIN
 70
     0
  9
$PLINEGEN
 70
     0
  9
$PSLTSCALE
 70
     0
  9
$TREEDEPTH
 70
  3020
  9
$CMLSTYLE
  2
STANDARD
  9
$CMLJUST
 70
     0
  9
$CMLSCALE
 40
1.0
  9
$PROXYGRAPHICS
 70
     1
  9
$MEASUREMENT
 70
     0
  9
$CELWEIGHT
370
    -1
  9
$ENDCAPS
280
     0
  9
$JOINSTYLE
280
     0
  9
$LWDISPLAY
290
     0
  9
$INSUNITS
 70
     0
  9
$HYPERLINKBASE
  1

  9
$STYLESHEET
  1
tps-s1_BLACK.ctb
  9
$XEDIT
290
     1
  9
$CEPSNTYPE
380
     0
  9
$PSTYLEMODE
290
     1
  9
$FINGERPRINTGUID
  2
{AF1BFB27-CCE5-11D3-9728-005004AD2079}
  9
$VERSIONGUID
  2
{9C788352-6A5E-4680-9874-CB4FB23E9FCA}
  9
$EXTNAMES
290
     1
  9
$PSVPSCALE
 40
0.0
  9
$OLESTARTUP
290
     0
  9
$SORTENTS
280
   127
  9
$INDEXCTL
280
     0
  9
$HIDETEXT
280
     0
  9
$XCLIPFRAME
280
     2
  9
$HALOGAP
280
     0
  9
$OBSCOLOR
 70
   257
  9
$OBSLTYPE
280
     0
  9
$INTERSECTIONDISPLAY
280
     0
  9
$INTERSECTIONCOLOR
 70
   257
  9
$DIMASSOC
280
     1
  9
$PROJECTNAME
  1

  9
$CAMERADISPLAY
290
     0
  9
$LENSLENGTH
 40
50.0
  9
$CAMERAHEIGHT
 40
0.0
  9
$STEPSPERSEC
 40
2.0
  9
$STEPSIZE
 40
6.0
  9
$3DDWFPREC
 40
2.0
  9
$PSOLWIDTH
 40
0.25
  9
$PSOLHEIGHT
 40
4.0
  9
$LOFTANG1
 40
1.570796326794896
  9
$LOFTANG2
 40
1.570796326794896
  9
$LOFTMAG1
 40
0.0
  9
$LOFTMAG2
 40
0.0
  9
$LOFTPARAM
 70
     7
  9
$LOFTNORMALS
280
     1
  9
$LATITUDE
 40
37.795
  9
$LONGITUDE
 40
-122.394
  9
$NORTHDIRECTION
 40
0.0
  9
$TIMEZONE
 70
 -8000
  9
$LIGHTGLYPHDISPLAY
280
     1
  9
$TILEMODELIGHTSYNCH
280
     1
  9
$CMATERIAL
347
13F5
  9
$SOLIDHIST
280
     1
  9
$SHOWHIST
280
     1
  9
$DWFFRAME
280
     2
  9
$DGNFRAME
280
     0
  9
$REALWORLDSCALE
290
     1
  9
$INTERFERECOLOR
 62
     1
  9
$INTERFEREOBJVS
345
1417
  9
$INTERFEREVPVS
346
1414
  9
$CSHADOW
280
     0
  9
$SHADOWPLANELOCATION
 40
0.0
  0
ENDSEC
  0
SECTION
  2
CLASSES
  0
CLASS
  1
ACDBDICTIONARYWDFLT
  2
AcDbDictionaryWithDefault
  3
ObjectDBX Classes
 90
        0
 91
        1
280
     0
281
     0
  0
CLASS
  1
PLOTSETTINGS
  2
AcDbPlotSettings
  3
ObjectDBX Classes
 90
        0
 91
        2
280
     0
281
     0
  0
CLASS
  1
SORTENTSTABLE
  2
AcDbSortentsTable
  3
ObjectDBX Classes
 90
        0
 91
        1
280
     0
281
     0
  0
CLASS
  1
MATERIAL
  2
AcDbMaterial
  3
ObjectDBX Classes
 90
     1153
 91
        3
280
     0
281
     0
  0
CLASS
  1
VISUALSTYLE
  2
AcDbVisualStyle
  3
ObjectDBX Classes
 90
     4095
 91
       19
280
     0
281
     0
  0
CLASS
  1
TABLESTYLE
  2
AcDbTableStyle
  3
ObjectDBX Classes
 90
     4095
 91
        1
280
     0
281
     0
  0
CLASS
  1
SCALE
  2
AcDbScale
  3
ObjectDBX Classes
 90
     1153
 91
       33
280
     0
281
     0
  0
CLASS
  1
MLEADERSTYLE
  2
AcDbMLeaderStyle
  3
ACDB_MLEADERSTYLE_CLASS
 90
     4095
 91
        1
280
     0
281
     0
  0
CLASS
  1
DICTIONARYVAR
  2
AcDbDictionaryVar
  3
ObjectDBX Classes
 90
        0
 91
        7
280
     0
281
     0
  0
CLASS
  1
CELLSTYLEMAP
  2
AcDbCellStyleMap
  3
ObjectDBX Classes
 90
     1152
 91
        1
280
     0
281
     0
  0
ENDSEC
  0
SECTION
  2
TABLES
  0
TABLE
  2
VPORT
  5
8
330
0
100
AcDbSymbolTable
 70
     1
  0
VPORT
  5
13F2
330
8
100
AcDbSymbolTableRecord
100
AcDbViewportTableRecord
  2
*Active
 70
     0
 10
0.0
 20
0.0
 11
1.0
 21
1.0
 12
223.4671343277674
 22
-3.34875393356111
 13
0.0
 23
0.0
 14
1.0
 24
1.0
 15
0.0
 25
0.0
 16
0.0
 26
0.0
 36
1.0
 17
0.0
 27
0.0
 37
0.0
 40
7.105156767419673
 41
1.85287610619469
 42
0.0
 43
0.0
 44
0.0
 50
0.0
 51
0.0
 71
     0
 72
   100
 73
     1
 74
     0
 75
     0
 76
     0
 77
     0
 78
     2
281
     0
 65
     1
110
217.0637956006614
120
-1.390165411011395
130
0.0
111
1.0
121
0.0
131
0.0
112
0.0
122
1.0
132
0.0
 79
     0
146
0.0
348
1413
 60
     3
 61
     5
292
     1
282
     1
141
0.0
142
0.0
 63
   250
421
  3355443
  0
ENDTAB
  0
TABLE
  2
LTYPE
  5
5
330
0
100
AcDbSymbolTable
 70
     4
  0
LTYPE
  5
12
330
5
100
AcDbSymbolTableRecord
100
AcDbLinetypeTableRecord
  2
BYBLOCK
 70
     0
  3

 72
    65
 73
     0
 40
0.0
  0
LTYPE
  5
13
330
5
100
AcDbSymbolTableRecord
100
AcDbLinetypeTableRecord
  2
BYLAYER
 70
     0
  3

 72
    65
 73
     0
 40
0.0
  0
LTYPE
  5
14
330
5
100
AcDbSymbolTableRecord
100
AcDbLinetypeTableRecord
  2
CONTINUOUS
 70
     0
  3
Solid line
 72
    65
 73
     0
 40
0.0
  0
LTYPE
  5
1D
330
5
100
AcDbSymbolTableRecord
100
AcDbLinetypeTableRecord
  2
H
 70
     0
  3
_ _ _ _ _ _ _ _ _ _ _ _ _ _ _ _ _ _ _ _ _ _ _
 72
    65
 73
     2
 40
0.375
 49
0.25
 74
     0
 49
-0.125
 74
     0
  0
LTYPE
  5
1E
330
5
100
AcDbSymbolTableRecord
100
AcDbLinetypeTableRecord
  2
C
 70
     0
  3
____ _ ____ _ ____ _ ____ _ ____ _ ____ _ ____
 72
    65
 73
     4
 40
2.0
 49
1.25
 74
     0
 49
-0.25
 74
     0
 49
0.25
 74
     0
 49
-0.25
 74
     0
  0
LTYPE
  5
726
330
5
100
AcDbSymbolTableRecord
100
AcDbLinetypeTableRecord
  2
ACAD_ISO08W100
 70
     0
  3
ISO long-dash short-dash ____ __ ____ __ ____ _
 72
    65
 73
     4
 40
36.0
 49
24.0
 74
     0
 49
-3.0
 74
     0
 49
6.0
 74
     0
 49
-3.0
 74
     0
  0
ENDTAB
  0
TABLE
  2
LAYER
  5
2
330
0
100
AcDbSymbolTable
 70
    17
  0
LAYER
  5
F
102
{ACAD_XDICTIONARY
360
144F
102
}
330
2
100
AcDbSymbolTableRecord
100
AcDbLayerTableRecord
  2
0
 70
     0
 62
     7
  6
CONTINUOUS
370
    -3
390
106
347
1405
  0
LAYER
  5
24
102
{ACAD_XDICTIONARY
360
1451
102
}
330
2
100
AcDbSymbolTableRecord
100
AcDbLayerTableRecord
  2
H
 70
     0
 62
     1
  6
H
370
    -3
390
106
347
1405
  0
LAYER
  5
25
102
{ACAD_XDICTIONARY
360
1453
102
}
330
2
100
AcDbSymbolTableRecord
100
AcDbLayerTableRecord
  2
C
 70
     0
 62
     1
  6
C
370
    -3
390
106
347
1405
  0
LAYER
  5
26
102
{ACAD_XDICTIONARY
360
1455
102
}
330
2
100
AcDbSymbolTableRecord
100
AcDbLayerTableRecord
  2
BORDER
 70
     0
 62
     3
  6
CONTINUOUS
370
    -3
390
106
347
1405
  0
LAYER
  5
27
102
{ACAD_XDICTIONARY
360
1457
102
}
330
2
100
AcDbSymbolTableRecord
100
AcDbLayerTableRecord
  2
X
 70
     0
 62
     1
  6
CONTINUOUS
370
    -3
390
106
347
1405
  0
LAYER
  5
28
102
{ACAD_XDICTIONARY
360
1459
102
}
330
2
100
AcDbSymbolTableRecord
100
AcDbLayerTableRecord
  2
T
 70
     0
 62
    50
  6
CONTINUOUS
370
    -3
390
106
347
1405
  0
LAYER
  5
2A
102
{ACAD_XDICTIONARY
360
145B
102
}
330
2
100
AcDbSymbolTableRecord
100
AcDbLayerTableRecord
  2
D
 70
     0
 62
     7
  6
CONTINUOUS
370
    -3
390
106
347
1405
  0
LAYER
  5
371
102
{ACAD_XDICTIONARY
360
145D
102
}
330
2
100
AcDbSymbolTableRecord
100
AcDbLayerTableRecord
  2
FRAME 070
 70
     0
 62
     5
  6
CONTINUOUS
370
    -3
390
106
347
1405
  0
LAYER
  5
372
102
{ACAD_XDICTIONARY
360
145F
102
}
330
2
100
AcDbSymbolTableRecord
100
AcDbLayerTableRecord
  2
SECTION
 70
     0
 62
     6
  6
ACAD_ISO08W100
370
    -3
390
106
347
1405
  0
LAYER
  5
373
102
{ACAD_XDICTIONARY
360
1461
102
}
330
2
100
AcDbSymbolTableRecord
100
AcDbLayerTableRecord
  2
FRAME 025
 70
     0
 62
     7
  6
CONTINUOUS
370
    -3
390
106
347
1405
  0
LAYER
  5
374
102
{ACAD_XDICTIONARY
360
1463
102
}
330
2
100
AcDbSymbolTableRecord
100
AcDbLayerTableRecord
  2
Title Block
 70
     0
 62
    30
  6
CONTINUOUS
370
    -3
390
106
347
1405
  0
LAYER
  5
496
102
{ACAD_XDICTIONARY
360
1465
102
}
330
2
100
AcDbSymbolTableRecord
100
AcDbLayerTableRecord
  2
TITLE BLOCK TEXT
 70
     0
 62
   253
  6
CONTINUOUS
370
    -3
390
106
347
1405
  0
LAYER
  5
4CC
330
2
100
AcDbSymbolTableRecord
100
AcDbLayerTableRecord
  2
Defpoints
 70
     0
 62
     7
  6
CONTINUOUS
290
     0
370
    -3
390
106
347
1405
  0
LAYER
  5
4F0
102
{ACAD_XDICTIONARY
360
1467
102
}
330
2
100
AcDbSymbolTableRecord
100
AcDbLayerTableRecord
  2
ti tubing 075
 70
     0
 62
    41
  6
CONTINUOUS
370
    -3
390
106
347
1405
  0
LAYER
  5
504
102
{ACAD_XDICTIONARY
360
1469
102
}
330
2
100
AcDbSymbolTableRecord
100
AcDbLayerTableRecord
  2
ti tubing 2.0
 70
     0
 62
   101
  6
CONTINUOUS
370
    -3
390
106
347
1405
  0
LAYER
  5
AF7
102
{ACAD_XDICTIONARY
360
AF8
102
}
330
2
100
AcDbSymbolTableRecord
100
AcDbLayerTableRecord
  2
Layer 1
 70
     0
 62
     7
  6
CONTINUOUS
370
    -3
390
106
347
1405
  0
LAYER
  5
1197
102
{ACAD_XDICTIONARY
360
146C
102
}
330
2
100
AcDbSymbolTableRecord
100
AcDbLayerTableRecord
  2
PICK
 70
     0
 62
   211
  6
CONTINUOUS
370
    -3
390
106
347
1405
  0
ENDTAB
  0
TABLE
  2
STYLE
  5
3
330
0
100
AcDbSymbolTable
 70
     6
  0
STYLE
  5
10
330
3
100
AcDbSymbolTableRecord
100
AcDbTextStyleTableRecord
  2
STANDARD
 70
     0
 40
0.0
 41
1.0
 50
0.0
 71
     0
 42
0.1
  3
txt
  4

  0
STYLE
  5
376
330
3
100
AcDbSymbolTableRecord
100
AcDbTextStyleTableRecord
  2
ISO Proportional
 70
     0
 40
0.0
 41
1.0
 50
0.0
 71
     0
 42
2.5
  3
isocp.shx
  4

  0
STYLE
  5
3D0
330
3
100
AcDbSymbolTableRecord
100
AcDbTextStyleTableRecord
  2
Roman
 70
     0
 40
0.0
 41
1.0
 50
0.0
 71
     0
 42
0.065
  3
romans
  4

  0
STYLE
  5
725
330
3
100
AcDbSymbolTableRecord
100
AcDbTextStyleTableRecord
  2

 70
     1
 40
0.0
 41
1.0
 50
0.0
 71
     0
 42
0.1
  3
ltypeshp.shx
  4

  0
STYLE
  5
A85
330
3
100
AcDbSymbolTableRecord
100
AcDbTextStyleTableRecord
  2
Annotative
 70
     0
 40
0.0
 41
1.0
 50
0.0
 71
     0
 42
0.2
  3
ARIAL.TTF
  4

1001
AcadAnnotative
1000
AnnotativeData
1002
{
1070
     1
1070
     1
1002
}
1001
ACAD
1000
Arial
1071
       34
  0
STYLE
  5
A86
330
3
100
AcDbSymbolTableRecord
100
AcDbTextStyleTableRecord
  2
small
 70
     0
 40
0.1
 41
1.0
 50
0.0
 71
     0
 42
0.2
  3
ARIAL.TTF
  4

1001
ACAD
1000
Arial
1071
       34
  0
ENDTAB
  0
TABLE
  2
VIEW
  5
6
330
0
100
AcDbSymbolTable
 70
     1
  0
VIEW
  5
20
330
6
100
AcDbSymbolTableRecord
100
AcDbViewTableRecord
  2
BORDER
 70
     0
 40
4.875
 10
218.9921132055122
 20
-1.75675378203411
 41
7.75
 11
0.0
 21
0.0
 31
1.0
 12
0.0
 22
0.0
 32
0.0
 42
0.0
 43
0.0
 44
0.0
 50
0.0
 71
     0
281
     0
 72
     0
 73
     0
348
1413
  0
ENDTAB
  0
TABLE
  2
UCS
  5
7
330
0
100
AcDbSymbolTable
 70
     0
  0
ENDTAB
  0
TABLE
  2
APPID
  5
9
330
0
100
AcDbSymbolTable
 70
    11
  0
APPID
  5
11
330
9
100
AcDbSymbolTableRecord
100
AcDbRegAppTableRecord
  2
ACAD
 70
     0
  0
APPID
  5
175
330
9
100
AcDbSymbolTableRecord
100
AcDbRegAppTableRecord
  2
SI-MECH
 70
     0
  0
APPID
  5
29D
330
9
100
AcDbSymbolTableRecord
100
AcDbRegAppTableRecord
  2
DCO15
 70
     0
  0
APPID
  5
A8A
330
9
100
AcDbSymbolTableRecord
100
AcDbRegAppTableRecord
  2
AcadAnnoPO
 70
     0
  0
APPID
  5
A8B
330
9
100
AcDbSymbolTableRecord
100
AcDbRegAppTableRecord
  2
AcadAnnotative
 70
     0
  0
APPID
  5
A8C
330
9
100
AcDbSymbolTableRecord
100
AcDbRegAppTableRecord
  2
ACAD_DSTYLE_DIMJAG
 70
     0
  0
APPID
  5
A8D
330
9
100
AcDbSymbolTableRecord
100
AcDbRegAppTableRecord
  2
ACAD_DSTYLE_DIMTALN
 70
     0
  0
APPID
  5
A8E
330
9
100
AcDbSymbolTableRecord
100
AcDbRegAppTableRecord
  2
ACAD_MLEADERVER
 70
     0
  0
APPID
  5
A8F
330
9
100
AcDbSymbolTableRecord
100
AcDbRegAppTableRecord
  2
ACAD_DSTYLE_DIMBREAK
 70
     0
  0
APPID
  5
A90
330
9
100
AcDbSymbolTableRecord
100
AcDbRegAppTableRecord
  2
ACAD_EXEMPT_FROM_CAD_STANDARDS
 70
     0
  0
APPID
  5
A91
330
9
100
AcDbSymbolTableRecord
100
AcDbRegAppTableRecord
  2
ACAD_DSTYLE_DIMRADIAL_EXTENSION
 70
     0
  0
ENDTAB
  0
TABLE
  2
DIMSTYLE
  5
A
330
0
100
AcDbSymbolTable
 70
     5
100
AcDbDimStyleTable
 71
     2
340
49A
340
8C
  0
DIMSTYLE
105
8C
330
A
100
AcDbSymbolTableRecord
100
AcDbDimStyleTableRecord
  2
THREE
 70
     0
 41
0.12
 42
0.1
 43
0.22
 44
0.12
 73
     0
 78
     3
140
0.1
141
0.0
271
     3
272
     3
284
     3
340
10
  0
DIMSTYLE
105
49A
102
{ACAD_REACTORS
330
1093
330
10BA
330
10C3
330
10CC
330
10D5
330
10E0
330
10EB
330
10F6
330
1101
330
110A
330
1113
330
111E
330
1129
330
1134
330
113D
330
1146
330
114F
330
1158
330
1161
330
116C
330
1177
330
1182
330
11A2
330
1242
330
124B
330
1254
330
125D
330
1266
330
128F
102
}
330
A
100
AcDbSymbolTableRecord
100
AcDbDimStyleTableRecord
  2
TPS3
 70
     0
 40
0.4
 41
0.12
 42
0.1
 43
0.22
 44
0.12
 73
     0
 74
     0
 78
     3
140
0.1
141
0.0
271
     3
272
     3
284
     3
340
10
  0
DIMSTYLE
105
A87
330
A
100
AcDbSymbolTableRecord
100
AcDbDimStyleTableRecord
  2
Standard
 70
     0
340
10
  0
DIMSTYLE
105
A88
330
A
100
AcDbSymbolTableRecord
100
AcDbDimStyleTableRecord
  2
Annotative
 70
     0
 40
0.0
340
10
1001
AcadAnnotative
1000
AnnotativeData
1002
{
1070
     1
1070
     1
1002
}
1001
ACAD_DSTYLE_DIMJAG
1070
   388
1040
1.5
1001
ACAD_DSTYLE_DIMTALN
1070
   392
1070
     0
  0
DIMSTYLE
105
A89
102
{ACAD_REACTORS
330
AA8
330
AAA
330
AAC
330
AAE
330
AB0
330
AB2
330
AB4
330
AB6
330
AB8
330
ABA
330
ABC
330
ABE
330
ACD
330
ACF
330
AD1
330
AD3
330
AD5
330
AD7
102
}
330
A
100
AcDbSymbolTableRecord
100
AcDbDimStyleTableRecord
  2
small
 70
     0
 41
0.075
140
0.1
175
     1
279
     1
340
A86
1001
ACAD_DSTYLE_DIMBREAK
1070
   391
1040
0.125
1001
ACAD_DSTYLE_DIMJAG
1070
   388
1040
1.5
1001
ACAD_DSTYLE_DIMTALN
1070
   392
1070
     0
  0
ENDTAB
  0
TABLE
  2
BLOCK_RECORD
  5
1
330
0
100
AcDbSymbolTable
 70
    49
  0
BLOCK_RECORD
  5
18
330
1
100
AcDbSymbolTableRecord
100
AcDbBlockTableRecord
  2
*MODEL_SPACE
340
109
 70
     0
280
     1
281
     0
  0
BLOCK_RECORD
  5
15
330
1
100
AcDbSymbolTableRecord
100
AcDbBlockTableRecord
  2
*PAPER_SPACE
340
10A
 70
     0
280
     1
281
     0
  0
BLOCK_RECORD
  5
9A4
102
{ACAD_XDICTIONARY
360
9AD
102
}
330
1
100
AcDbSymbolTableRecord
100
AcDbBlockTableRecord
  2
A$C0F5103D6
340
0
 70
     1
280
     1
281
     0
  0
BLOCK_RECORD
  5
9B1
330
1
100
AcDbSymbolTableRecord
100
AcDbBlockTableRecord
  2
*D1
340
0
 70
     0
280
     1
281
     0
  0
BLOCK_RECORD
  5
9BE
330
1
100
AcDbSymbolTableRecord
100
AcDbBlockTableRecord
  2
*D2
340
0
 70
     0
280
     1
281
     0
  0
BLOCK_RECORD
  5
9CC
330
1
100
AcDbSymbolTableRecord
100
AcDbBlockTableRecord
  2
*D3
340
0
 70
     0
280
     1
281
     0
  0
BLOCK_RECORD
  5
9D9
330
1
100
AcDbSymbolTableRecord
100
AcDbBlockTableRecord
  2
*D4
340
0
 70
     0
280
     1
281
     0
  0
BLOCK_RECORD
  5
9E5
330
1
100
AcDbSymbolTableRecord
100
AcDbBlockTableRecord
  2
*D5
340
0
 70
     0
280
     1
281
     0
  0
BLOCK_RECORD
  5
9EE
330
1
100
AcDbSymbolTableRecord
100
AcDbBlockTableRecord
  2
*D6
340
0
 70
     0
280
     1
281
     0
  0
BLOCK_RECORD
  5
9FB
330
1
100
AcDbSymbolTableRecord
100
AcDbBlockTableRecord
  2
*D7
340
0
 70
     0
280
     1
281
     0
  0
BLOCK_RECORD
  5
A07
330
1
100
AcDbSymbolTableRecord
100
AcDbBlockTableRecord
  2
*D8
340
0
 70
     0
280
     1
281
     0
  0
BLOCK_RECORD
  5
A12
330
1
100
AcDbSymbolTableRecord
100
AcDbBlockTableRecord
  2
*D9
340
0
 70
     0
280
     1
281
     0
  0
BLOCK_RECORD
  5
A1B
330
1
100
AcDbSymbolTableRecord
100
AcDbBlockTableRecord
  2
*D10
340
0
 70
     0
280
     1
281
     0
  0
BLOCK_RECORD
  5
A26
330
1
100
AcDbSymbolTableRecord
100
AcDbBlockTableRecord
  2
*D11
340
0
 70
     0
280
     1
281
     0
  0
BLOCK_RECORD
  5
A32
330
1
100
AcDbSymbolTableRecord
100
AcDbBlockTableRecord
  2
*D12
340
0
 70
     0
280
     1
281
     0
  0
BLOCK_RECORD
  5
A3B
330
1
100
AcDbSymbolTableRecord
100
AcDbBlockTableRecord
  2
*D13
340
0
 70
     0
280
     1
281
     0
  0
BLOCK_RECORD
  5
A47
330
1
100
AcDbSymbolTableRecord
100
AcDbBlockTableRecord
  2
*D14
340
0
 70
     0
280
     1
281
     0
  0
BLOCK_RECORD
  5
A54
330
1
100
AcDbSymbolTableRecord
100
AcDbBlockTableRecord
  2
*D15
340
0
 70
     0
280
     1
281
     0
  0
BLOCK_RECORD
  5
A60
330
1
100
AcDbSymbolTableRecord
100
AcDbBlockTableRecord
  2
*D16
340
0
 70
     0
280
     1
281
     0
  0
BLOCK_RECORD
  5
A6C
330
1
100
AcDbSymbolTableRecord
100
AcDbBlockTableRecord
  2
*D17
340
0
 70
     0
280
     1
281
     0
  0
BLOCK_RECORD
  5
A79
330
1
100
AcDbSymbolTableRecord
100
AcDbBlockTableRecord
  2
*D18
340
0
 70
     0
280
     1
281
     0
  0
BLOCK_RECORD
  5
A92
330
1
100
AcDbSymbolTableRecord
100
AcDbBlockTableRecord
  2
smaller diamond
340
0
 70
     0
280
     1
281
     0
  0
BLOCK_RECORD
  5
1094
330
1
100
AcDbSymbolTableRecord
100
AcDbBlockTableRecord
  2
*D20
340
0
 70
     0
280
     1
281
     0
  0
BLOCK_RECORD
  5
10BB
330
1
100
AcDbSymbolTableRecord
100
AcDbBlockTableRecord
  2
*D21
340
0
 70
     0
280
     1
281
     0
  0
BLOCK_RECORD
  5
10C4
330
1
100
AcDbSymbolTableRecord
100
AcDbBlockTableRecord
  2
*D22
340
0
 70
     0
280
     1
281
     0
  0
BLOCK_RECORD
  5
10CD
330
1
100
AcDbSymbolTableRecord
100
AcDbBlockTableRecord
  2
*D23
340
0
 70
     0
280
     1
281
     0
  0
BLOCK_RECORD
  5
10D6
330
1
100
AcDbSymbolTableRecord
100
AcDbBlockTableRecord
  2
*D24
340
0
 70
     0
280
     1
281
     0
  0
BLOCK_RECORD
  5
10E1
330
1
100
AcDbSymbolTableRecord
100
AcDbBlockTableRecord
  2
*D25
340
0
 70
     0
280
     1
281
     0
  0
BLOCK_RECORD
  5
10EC
330
1
100
AcDbSymbolTableRecord
100
AcDbBlockTableRecord
  2
*D26
340
0
 70
     0
280
     1
281
     0
  0
BLOCK_RECORD
  5
10F7
330
1
100
AcDbSymbolTableRecord
100
AcDbBlockTableRecord
  2
*D27
340
0
 70
     0
280
     1
281
     0
  0
BLOCK_RECORD
  5
1102
330
1
100
AcDbSymbolTableRecord
100
AcDbBlockTableRecord
  2
*D28
340
0
 70
     0
280
     1
281
     0
  0
BLOCK_RECORD
  5
110B
330
1
100
AcDbSymbolTableRecord
100
AcDbBlockTableRecord
  2
*D29
340
0
 70
     0
280
     1
281
     0
  0
BLOCK_RECORD
  5
1114
330
1
100
AcDbSymbolTableRecord
100
AcDbBlockTableRecord
  2
*D30
340
0
 70
     0
280
     1
281
     0
  0
BLOCK_RECORD
  5
111F
330
1
100
AcDbSymbolTableRecord
100
AcDbBlockTableRecord
  2
*D31
340
0
 70
     0
280
     1
281
     0
  0
BLOCK_RECORD
  5
112A
330
1
100
AcDbSymbolTableRecord
100
AcDbBlockTableRecord
  2
*D32
340
0
 70
     0
280
     1
281
     0
  0
BLOCK_RECORD
  5
1135
330
1
100
AcDbSymbolTableRecord
100
AcDbBlockTableRecord
  2
*D33
340
0
 70
     0
280
     1
281
     0
  0
BLOCK_RECORD
  5
113E
330
1
100
AcDbSymbolTableRecord
100
AcDbBlockTableRecord
  2
*D34
340
0
 70
     0
280
     1
281
     0
  0
BLOCK_RECORD
  5
1147
330
1
100
AcDbSymbolTableRecord
100
AcDbBlockTableRecord
  2
*D35
340
0
 70
     0
280
     1
281
     0
  0
BLOCK_RECORD
  5
1150
330
1
100
AcDbSymbolTableRecord
100
AcDbBlockTableRecord
  2
*D36
340
0
 70
     0
280
     1
281
     0
  0
BLOCK_RECORD
  5
1159
330
1
100
AcDbSymbolTableRecord
100
AcDbBlockTableRecord
  2
*D37
340
0
 70
     0
280
     1
281
     0
  0
BLOCK_RECORD
  5
1162
330
1
100
AcDbSymbolTableRecord
100
AcDbBlockTableRecord
  2
*D38
340
0
 70
     0
280
     1
281
     0
  0
BLOCK_RECORD
  5
116D
330
1
100
AcDbSymbolTableRecord
100
AcDbBlockTableRecord
  2
*D39
340
0
 70
     0
280
     1
281
     0
  0
BLOCK_RECORD
  5
1178
330
1
100
AcDbSymbolTableRecord
100
AcDbBlockTableRecord
  2
*D40
340
0
 70
     0
280
     1
281
     0
  0
BLOCK_RECORD
  5
1183
330
1
100
AcDbSymbolTableRecord
100
AcDbBlockTableRecord
  2
*D41
340
0
 70
     0
280
     1
281
     0
  0
BLOCK_RECORD
  5
11A3
330
1
100
AcDbSymbolTableRecord
100
AcDbBlockTableRecord
  2
*D42
340
0
 70
     0
280
     1
281
     0
  0
BLOCK_RECORD
  5
1243
330
1
100
AcDbSymbolTableRecord
100
AcDbBlockTableRecord
  2
*D43
340
0
 70
     0
280
     1
281
     0
  0
BLOCK_RECORD
  5
124C
330
1
100
AcDbSymbolTableRecord
100
AcDbBlockTableRecord
  2
*D44
340
0
 70
     0
280
     1
281
     0
  0
BLOCK_RECORD
  5
1255
330
1
100
AcDbSymbolTableRecord
100
AcDbBlockTableRecord
  2
*D45
340
0
 70
     0
280
     1
281
     0
  0
BLOCK_RECORD
  5
125E
330
1
100
AcDbSymbolTableRecord
100
AcDbBlockTableRecord
  2
*D46
340
0
 70
     0
280
     1
281
     0
  0
BLOCK_RECORD
  5
1267
330
1
100
AcDbSymbolTableRecord
100
AcDbBlockTableRecord
  2
*D47
340
0
 70
     0
280
     1
281
     0
  0
BLOCK_RECORD
  5
1290
330
1
100
AcDbSymbolTableRecord
100
AcDbBlockTableRecord
  2
*D48
340
0
 70
     0
280
     1
281
     0
  0
ENDTAB
  0
ENDSEC
  0
SECTION
  2
BLOCKS
  0
BLOCK
  5
2E
330
18
100
AcDbEntity
  8
0
100
AcDbBlockBegin
  2
*MODEL_SPACE
 70
     0
 10
0.0
 20
0.0
 30
0.0
  3
*MODEL_SPACE
  1

  0
ENDBLK
  5
2F
330
18
100
AcDbEntity
  8
0
100
AcDbBlockEnd
  0
BLOCK
  5
2C
330
15
100
AcDbEntity
 67
     1
  8
0
100
AcDbBlockBegin
  2
*PAPER_SPACE
 70
     0
 10
0.0
 20
0.0
 30
0.0
  3
*PAPER_SPACE
  1

  0
ENDBLK
  5
2D
330
15
100
AcDbEntity
 67
     1
  8
0
100
AcDbBlockEnd
  0
BLOCK
  5
9AF
330
9A4
100
AcDbEntity
  8
0
100
AcDbBlockBegin
  2
A$C0F5103D6
 70
     0
 10
0.0
 20
0.0
 30
0.0
  3
A$C0F5103D6
  1

  0
LINE
  5
9A5
330
9A4
100
AcDbEntity
  8
0
100
AcDbLine
 10
3.253499989579381
 20
0.0000000021285
 30
0.0
 11
0.3229999895793227
 21
0.0000000021285
 31
0.0
  0
LINE
  5
9A6
330
9A4
100
AcDbEntity
  8
0
100
AcDbLine
 10
3.253499989579381
 20
0.3110000021285
 30
0.0
 11
0.4719999895793308
 21
0.3110000021285
 31
0.0
  0
LINE
  5
9A7
330
9A4
100
AcDbEntity
  8
0
100
AcDbLine
 10
3.373999989579374
 20
0.1205000021285016
 30
0.0
 11
3.373999989579374
 21
0.1905000021285001
 31
0.0
  0
ARC
  5
9A8
330
9A4
100
AcDbEntity
  8
0
100
AcDbCircle
 10
0.5078057429737122
 20
-0.502315340256379
 30
0.0
 40
0.8141031250000029
100
AcDbArc
 50
92.52078695624824
 51
128.5913034829189
  0
ARC
  5
9A9
330
9A4
100
AcDbEntity
  8
0
100
AcDbCircle
 10
0.0118740707862202
 20
-0.0780302730723541
 30
0.0
 40
0.2123625000000159
100
AcDbArc
 50
43.07360366990042
 51
93.20531985652186
  0
ARC
  5
9AA
330
9A4
100
AcDbEntity
  8
0
100
AcDbCircle
 10
0.3160879185601928
 20
0.1990181651286154
 30
0.0
 40
0.1991381578947491
100
AcDbArc
 50
221.5250625290709
 51
271.989131899025
  0
ARC
  5
9AB
330
9A4
100
AcDbEntity
  8
0
100
AcDbCircle
 10
3.253499989579381
 20
0.1905000021285001
 30
0.0
 40
0.1204999999999998
100
AcDbArc
 50
0.0
 51
90.0
  0
ARC
  5
9AC
330
9A4
100
AcDbEntity
  8
0
100
AcDbCircle
 10
3.253499989579381
 20
0.1205000021284999
 30
0.0
 40
0.1204999999999998
100
AcDbArc
 50
270.0
 51
0.0000000000010178
  0
ENDBLK
  5
9B0
330
9A4
100
AcDbEntity
  8
0
100
AcDbBlockEnd
  0
BLOCK
  5
9BC
330
9B1
100
AcDbEntity
  8
0
100
AcDbBlockBegin
  2
*D1
 70
     1
 10
0.0
 20
0.0
 30
0.0
  3
*D1
  1

  0
LINE
  5
9B2
330
9B1
100
AcDbEntity
  8
0
 62
     0
370
    -2
100
AcDbLine
 10
24.37285187699105
 20
4.846800853362636
 30
0.0
 11
24.37285187699105
 21
5.142679484341527
 31
0.0
  0
LINE
  5
9B3
330
9B1
100
AcDbEntity
  8
0
 62
     0
370
    -2
100
AcDbLine
 10
21.57235591469699
 20
4.846800853362636
 30
0.0
 11
21.57235591469699
 21
5.142679484341527
 31
0.0
  0
LINE
  5
9B4
330
9B1
100
AcDbEntity
  8
0
 62
     0
370
    -2
100
AcDbLine
 10
24.29785187699105
 20
4.962679484341528
 30
0.0
 11
23.27140335014143
 21
4.962679484341528
 31
0.0
  0
LINE
  5
9B5
330
9B1
100
AcDbEntity
  8
0
 62
     0
370
    -2
100
AcDbLine
 10
21.64735591469698
 20
4.962679484341528
 30
0.0
 11
22.67380444154661
 21
4.962679484341528
 31
0.0
  0
SOLID
  5
9B6
330
9B1
100
AcDbEntity
  8
0
 62
     0
100
AcDbTrace
 10
24.29785187699105
 20
4.975179484341528
 30
0.0
 11
24.29785187699105
 21
4.950179484341528
 31
0.0
 12
24.37285187699105
 22
4.962679484341528
 32
0.0
 13
24.37285187699105
 23
4.962679484341528
 33
0.0
  0
SOLID
  5
9B7
330
9B1
100
AcDbEntity
  8
0
 62
     0
100
AcDbTrace
 10
21.64735591469698
 20
4.975179484341528
 30
0.0
 11
21.64735591469698
 21
4.950179484341528
 31
0.0
 12
21.57235591469699
 22
4.962679484341528
 32
0.0
 13
21.57235591469699
 23
4.962679484341528
 33
0.0
  0
MTEXT
  5
9B8
330
9B1
100
AcDbEntity
  8
0
 62
     0
100
AcDbMText
 10
22.97260389584402
 20
4.962679484341528
 30
0.0
 40
0.1
 41
0.0
 46
0.0
 71
     5
 72
     1
  1
\A1;2.8005
  7
small
 73
     1
 44
1.0
  0
POINT
  5
9B9
330
9B1
100
AcDbEntity
  8
Defpoints
 62
     0
100
AcDbPoint
 10
24.37285187699105
 20
4.784300853362636
 30
0.0
  0
POINT
  5
9BA
330
9B1
100
AcDbEntity
  8
Defpoints
 62
     0
100
AcDbPoint
 10
21.57235591469699
 20
4.784300853362636
 30
0.0
  0
POINT
  5
9BB
330
9B1
100
AcDbEntity
  8
Defpoints
 62
     0
100
AcDbPoint
 10
21.57235591469699
 20
4.962679484341528
 30
0.0
  0
ENDBLK
  5
9BD
330
9B1
100
AcDbEntity
  8
0
100
AcDbBlockEnd
  0
BLOCK
  5
9CA
330
9BE
100
AcDbEntity
  8
0
100
AcDbBlockBegin
  2
*D2
 70
     1
 10
0.0
 20
0.0
 30
0.0
  3
*D2
  1

  0
LINE
  5
9BF
330
9BE
100
AcDbEntity
  8
0
 62
     0
370
    -2
100
AcDbLine
 10
21.10035591469701
 20
4.669800853362635
 30
0.0
 11
21.10035591469701
 21
5.149449103713417
 31
0.0
  0
LINE
  5
9C0
330
9BE
100
AcDbEntity
  8
0
 62
     0
370
    -2
100
AcDbLine
 10
21.57235591469699
 20
5.025179484341528
 30
0.0
 11
21.57235591469699
 21
5.149449103713417
 31
0.0
  0
LINE
  5
9C1
330
9BE
100
AcDbEntity
  8
0
 62
     0
370
    -2
100
AcDbLine
 10
21.17535591469701
 20
4.969449103713417
 30
0.0
 11
21.49735591469699
 21
4.969449103713417
 31
0.0
  0
LINE
  5
9C2
330
9BE
100
AcDbEntity
  8
0
 62
     0
370
    -2
100
AcDbLine
 10
21.33635591469699
 20
4.969449103713417
 30
0.0
 11
21.33635591469699
 21
5.296563701257755
 31
0.0
  0
LINE
  5
9C3
330
9BE
100
AcDbEntity
  8
0
 62
     0
370
    -2
100
AcDbLine
 10
21.33635591469699
 20
5.296563701257755
 30
0.0
 11
21.516355914697
 21
5.296563701257755
 31
0.0
  0
MTEXT
  5
9C4
330
9BE
100
AcDbEntity
  8
0
 62
     0
100
AcDbMText
 10
21.81375700610218
 20
5.296563701257755
 30
0.0
 40
0.1
 41
0.0
 46
0.0
 71
     5
 72
     1
  1
\A1;0.4720
  7
small
 73
     1
 44
1.0
  0
SOLID
  5
9C5
330
9BE
100
AcDbEntity
  8
0
 62
     0
100
AcDbTrace
 10
21.17535591469701
 20
4.981949103713417
 30
0.0
 11
21.17535591469701
 21
4.956949103713417
 31
0.0
 12
21.10035591469701
 22
4.969449103713417
 32
0.0
 13
21.10035591469701
 23
4.969449103713417
 33
0.0
  0
SOLID
  5
9C6
330
9BE
100
AcDbEntity
  8
0
 62
     0
100
AcDbTrace
 10
21.49735591469699
 20
4.981949103713417
 30
0.0
 11
21.49735591469699
 21
4.956949103713417
 31
0.0
 12
21.57235591469699
 22
4.969449103713417
 32
0.0
 13
21.57235591469699
 23
4.969449103713417
 33
0.0
  0
POINT
  5
9C7
330
9BE
100
AcDbEntity
  8
Defpoints
 62
     0
100
AcDbPoint
 10
21.10035591469701
 20
4.607300853362635
 30
0.0
  0
POINT
  5
9C8
330
9BE
100
AcDbEntity
  8
Defpoints
 62
     0
100
AcDbPoint
 10
21.57235591469699
 20
4.962679484341528
 30
0.0
  0
POINT
  5
9C9
330
9BE
100
AcDbEntity
  8
Defpoints
 62
     0
100
AcDbPoint
 10
21.57235591469699
 20
4.969449103713417
 30
0.0
  0
ENDBLK
  5
9CB
330
9BE
100
AcDbEntity
  8
0
100
AcDbBlockEnd
  0
BLOCK
  5
9D7
330
9CC
100
AcDbEntity
  8
0
100
AcDbBlockBegin
  2
*D3
 70
     1
 10
0.0
 20
0.0
 30
0.0
  3
*D3
  1

  0
LINE
  5
9CD
330
9CC
100
AcDbEntity
  8
0
 62
     0
370
    -2
100
AcDbLine
 10
21.10035591469702
 20
4.151561370342107
 30
0.0
 11
21.10035591469702
 21
3.461678631460822
 31
0.0
  0
LINE
  5
9CE
330
9CC
100
AcDbEntity
  8
0
 62
     0
370
    -2
100
AcDbLine
 10
24.47435591469703
 20
4.151561370342107
 30
0.0
 11
24.47435591469703
 21
3.461678631460822
 31
0.0
  0
LINE
  5
9CF
330
9CC
100
AcDbEntity
  8
0
 62
     0
370
    -2
100
AcDbLine
 10
21.17535591469702
 20
3.641678631460822
 30
0.0
 11
22.48998892970385
 21
3.641678631460822
 31
0.0
  0
LINE
  5
9D0
330
9CC
100
AcDbEntity
  8
0
 62
     0
370
    -2
100
AcDbLine
 10
24.39935591469703
 20
3.641678631460822
 30
0.0
 11
23.0847228996902
 21
3.641678631460822
 31
0.0
  0
SOLID
  5
9D1
330
9CC
100
AcDbEntity
  8
0
 62
     0
100
AcDbTrace
 10
21.17535591469702
 20
3.654178631460822
 30
0.0
 11
21.17535591469702
 21
3.629178631460821
 31
0.0
 12
21.10035591469702
 22
3.641678631460822
 32
0.0
 13
21.10035591469702
 23
3.641678631460822
 33
0.0
  0
SOLID
  5
9D2
330
9CC
100
AcDbEntity
  8
0
 62
     0
100
AcDbTrace
 10
24.39935591469703
 20
3.654178631460822
 30
0.0
 11
24.39935591469703
 21
3.629178631460821
 31
0.0
 12
24.47435591469703
 22
3.641678631460822
 32
0.0
 13
24.47435591469703
 23
3.641678631460822
 33
0.0
  0
MTEXT
  5
9D3
330
9CC
100
AcDbEntity
  8
0
 62
     0
100
AcDbMText
 10
22.78735591469702
 20
3.641678631460822
 30
0.0
 40
0.1
 41
0.0
 46
0.0
 71
     5
 72
     1
  1
\A1;3.3740
  7
small
 73
     1
 44
1.0
  0
POINT
  5
9D4
330
9CC
100
AcDbEntity
  8
Defpoints
 62
     0
100
AcDbPoint
 10
21.10035591469702
 20
4.214061370342107
 30
0.0
  0
POINT
  5
9D5
330
9CC
100
AcDbEntity
  8
Defpoints
 62
     0
100
AcDbPoint
 10
24.47435591469703
 20
4.214061370342107
 30
0.0
  0
POINT
  5
9D6
330
9CC
100
AcDbEntity
  8
Defpoints
 62
     0
100
AcDbPoint
 10
24.47435591469703
 20
3.641678631460822
 30
0.0
  0
ENDBLK
  5
9D8
330
9CC
100
AcDbEntity
  8
0
100
AcDbBlockEnd
  0
BLOCK
  5
9E3
330
9D9
100
AcDbEntity
  8
0
100
AcDbBlockBegin
  2
*D4
 70
     1
 10
0.0
 20
0.0
 30
0.0
  3
*D4
  1

  0
LINE
  5
9DA
330
9D9
100
AcDbEntity
  8
0
 62
     0
370
    -2
100
AcDbLine
 10
21.10035591469702
 20
4.151561370342107
 30
0.0
 11
21.10035591469702
 21
3.899836661349624
 31
0.0
  0
LINE
  5
9DB
330
9D9
100
AcDbEntity
  8
0
 62
     0
370
    -2
100
AcDbLine
 10
21.26735591469703
 20
4.151561370342107
 30
0.0
 11
21.26735591469703
 21
3.899836661349624
 31
0.0
  0
LINE
  5
9DC
330
9D9
100
AcDbEntity
  8
0
 62
     0
370
    -2
100
AcDbLine
 10
21.18385591469703
 20
4.079836661349624
 30
0.0
 11
21.18385591469703
 21
3.701664765033116
 31
0.0
  0
LINE
  5
9DD
330
9D9
100
AcDbEntity
  8
0
 62
     0
370
    -2
100
AcDbLine
 10
21.18385591469703
 20
3.701664765033116
 30
0.0
 11
21.36385591469703
 21
3.701664765033116
 31
0.0
  0
MTEXT
  5
9DE
330
9D9
100
AcDbEntity
  8
0
 62
     0
100
AcDbMText
 10
21.66125700610221
 20
3.701664765033116
 30
0.0
 40
0.1
 41
0.0
 46
0.0
 71
     5
 72
     1
  1
\A1;0.1670
  7
small
 73
     1
 44
1.0
  0
LINE
  5
9DF
330
9D9
100
AcDbEntity
  8
0
 62
     0
370
    -2
100
AcDbLine
 10
21.10035591469702
 20
4.079836661349624
 30
0.0
 11
21.26735591469703
 21
4.079836661349624
 31
0.0
  0
POINT
  5
9E0
330
9D9
100
AcDbEntity
  8
Defpoints
 62
     0
100
AcDbPoint
 10
21.10035591469702
 20
4.214061370342107
 30
0.0
  0
POINT
  5
9E1
330
9D9
100
AcDbEntity
  8
Defpoints
 62
     0
100
AcDbPoint
 10
21.26735591469703
 20
4.214061370342107
 30
0.0
  0
POINT
  5
9E2
330
9D9
100
AcDbEntity
  8
Defpoints
 62
     0
100
AcDbPoint
 10
21.26735591469703
 20
4.079836661349624
 30
0.0
  0
ENDBLK
  5
9E4
330
9D9
100
AcDbEntity
  8
0
100
AcDbBlockEnd
  0
BLOCK
  5
9EC
330
9E5
100
AcDbEntity
  8
0
100
AcDbBlockBegin
  2
*D5
 70
     1
 10
0.0
 20
0.0
 30
0.0
  3
*D5
  1

  0
LINE
  5
9E6
330
9E5
100
AcDbEntity
  8
0
 62
     0
370
    -2
100
AcDbLine
 10
21.26735591469703
 20
4.151561370342107
 30
0.0
 11
21.26735591469703
 21
3.899836661349624
 31
0.0
  0
LINE
  5
9E7
330
9E5
100
AcDbEntity
  8
0
 62
     0
370
    -2
100
AcDbLine
 10
21.41645197859211
 20
4.151561370342107
 30
0.0
 11
21.41645197859211
 21
3.899836661349624
 31
0.0
  0
MTEXT
  5
9E8
330
9E5
100
AcDbEntity
  8
0
 62
     0
100
AcDbMText
 10
21.61190394664457
 20
3.803779362577455
 30
0.0
 40
0.1
 41
0.0
 46
0.0
 71
     5
 72
     1
  1
\A1;0.1491
  7
small
 73
     1
 44
1.0
  0
POINT
  5
9E9
330
9E5
100
AcDbEntity
  8
Defpoints
 62
     0
100
AcDbPoint
 10
21.26735591469703
 20
4.214061370342107
 30
0.0
  0
POINT
  5
9EA
330
9E5
100
AcDbEntity
  8
Defpoints
 62
     0
100
AcDbPoint
 10
21.41645197859211
 20
4.214061370342107
 30
0.0
  0
POINT
  5
9EB
330
9E5
100
AcDbEntity
  8
Defpoints
 62
     0
100
AcDbPoint
 10
21.41645197859211
 20
4.079836661349624
 30
0.0
  0
ENDBLK
  5
9ED
330
9E5
100
AcDbEntity
  8
0
100
AcDbBlockEnd
  0
BLOCK
  5
9F9
330
9EE
100
AcDbEntity
  8
0
100
AcDbBlockBegin
  2
*D6
 70
     1
 10
0.0
 20
0.0
 30
0.0
  3
*D6
  1

  0
LINE
  5
9EF
330
9EE
100
AcDbEntity
  8
0
 62
     0
370
    -2
100
AcDbLine
 10
21.41645197859211
 20
4.151561370342107
 30
0.0
 11
21.41645197859211
 21
3.899836661349624
 31
0.0
  0
LINE
  5
9F0
330
9EE
100
AcDbEntity
  8
0
 62
     0
370
    -2
100
AcDbLine
 10
24.35385591469704
 20
4.151561370342107
 30
0.0
 11
24.35385591469704
 21
3.899836661349624
 31
0.0
  0
LINE
  5
9F1
330
9EE
100
AcDbEntity
  8
0
 62
     0
370
    -2
100
AcDbLine
 10
21.49145197859211
 20
4.079836661349624
 30
0.0
 11
22.58693430135126
 21
4.079836661349624
 31
0.0
  0
LINE
  5
9F2
330
9EE
100
AcDbEntity
  8
0
 62
     0
370
    -2
100
AcDbLine
 10
24.27885591469704
 20
4.079836661349624
 30
0.0
 11
23.18337359193789
 21
4.079836661349624
 31
0.0
  0
SOLID
  5
9F3
330
9EE
100
AcDbEntity
  8
0
 62
     0
100
AcDbTrace
 10
21.49145197859211
 20
4.092336661349624
 30
0.0
 11
21.49145197859211
 21
4.067336661349624
 31
0.0
 12
21.41645197859211
 22
4.079836661349624
 32
0.0
 13
21.41645197859211
 23
4.079836661349624
 33
0.0
  0
SOLID
  5
9F4
330
9EE
100
AcDbEntity
  8
0
 62
     0
100
AcDbTrace
 10
24.27885591469704
 20
4.092336661349624
 30
0.0
 11
24.27885591469704
 21
4.067336661349624
 31
0.0
 12
24.35385591469704
 22
4.079836661349624
 32
0.0
 13
24.35385591469704
 23
4.079836661349624
 33
0.0
  0
MTEXT
  5
9F5
330
9EE
100
AcDbEntity
  8
0
 62
     0
100
AcDbMText
 10
22.88515394664457
 20
4.079836661349624
 30
0.0
 40
0.1
 41
0.0
 46
0.0
 71
     5
 72
     1
  1
\A1;2.9374
  7
small
 73
     1
 44
1.0
  0
POINT
  5
9F6
330
9EE
100
AcDbEntity
  8
Defpoints
 62
     0
100
AcDbPoint
 10
21.41645197859211
 20
4.214061370342107
 30
0.0
  0
POINT
  5
9F7
330
9EE
100
AcDbEntity
  8
Defpoints
 62
     0
100
AcDbPoint
 10
24.35385591469704
 20
4.214061370342107
 30
0.0
  0
POINT
  5
9F8
330
9EE
100
AcDbEntity
  8
Defpoints
 62
     0
100
AcDbPoint
 10
24.35385591469704
 20
4.079836661349624
 30
0.0
  0
ENDBLK
  5
9FA
330
9EE
100
AcDbEntity
  8
0
100
AcDbBlockEnd
  0
BLOCK
  5
A05
330
9FB
100
AcDbEntity
  8
0
100
AcDbBlockBegin
  2
*D7
 70
     1
 10
0.0
 20
0.0
 30
0.0
  3
*D7
  1

  0
LINE
  5
9FC
330
9FB
100
AcDbEntity
  8
0
 62
     0
370
    -2
100
AcDbLine
 10
24.35385591469704
 20
4.151561370342107
 30
0.0
 11
24.35385591469704
 21
3.899836661349624
 31
0.0
  0
LINE
  5
9FD
330
9FB
100
AcDbEntity
  8
0
 62
     0
370
    -2
100
AcDbLine
 10
24.47435591469703
 20
4.151561370342107
 30
0.0
 11
24.47435591469703
 21
3.899836661349624
 31
0.0
  0
LINE
  5
9FE
330
9FB
100
AcDbEntity
  8
0
 62
     0
370
    -2
100
AcDbLine
 10
24.41410591469703
 20
4.079836661349624
 30
0.0
 11
24.41410591469703
 21
3.701664765033116
 31
0.0
  0
LINE
  5
9FF
330
9FB
100
AcDbEntity
  8
0
 62
     0
370
    -2
100
AcDbLine
 10
24.41410591469703
 20
3.701664765033116
 30
0.0
 11
24.59410591469703
 21
3.701664765033116
 31
0.0
  0
MTEXT
  5
A00
330
9FB
100
AcDbEntity
  8
0
 62
     0
100
AcDbMText
 10
24.8920527086943
 20
3.701664765033116
 30
0.0
 40
0.1
 41
0.0
 46
0.0
 71
     5
 72
     1
  1
\A1;0.1205
  7
small
 73
     1
 44
1.0
  0
LINE
  5
A01
330
9FB
100
AcDbEntity
  8
0
 62
     0
370
    -2
100
AcDbLine
 10
24.35385591469704
 20
4.079836661349624
 30
0.0
 11
24.47435591469703
 21
4.079836661349624
 31
0.0
  0
POINT
  5
A02
330
9FB
100
AcDbEntity
  8
Defpoints
 62
     0
100
AcDbPoint
 10
24.35385591469704
 20
4.214061370342107
 30
0.0
  0
POINT
  5
A03
330
9FB
100
AcDbEntity
  8
Defpoints
 62
     0
100
AcDbPoint
 10
24.47435591469703
 20
4.214061370342107
 30
0.0
  0
POINT
  5
A04
330
9FB
100
AcDbEntity
  8
Defpoints
 62
     0
100
AcDbPoint
 10
24.47435591469703
 20
4.079836661349624
 30
0.0
  0
ENDBLK
  5
A06
330
9FB
100
AcDbEntity
  8
0
100
AcDbBlockEnd
  0
BLOCK
  5
A10
330
A07
100
AcDbEntity
  8
0
100
AcDbBlockBegin
  2
*D8
 70
     1
 10
0.0
 20
0.0
 30
0.0
  3
*D8
  1

  0
LINE
  5
A08
330
A07
100
AcDbEntity
  8
0
 62
     0
370
    -2
100
AcDbLine
 10
21.13464428649994
 20
4.84886860809507
 30
0.0
 11
21.20964428649994
 21
4.848868608095071
 31
0.0
  0
LINE
  5
A09
330
A07
100
AcDbEntity
  8
0
 62
     0
370
    -2
100
AcDbLine
 10
21.20964428649994
 20
4.848868608095071
 30
0.0
 11
21.24064595306892
 21
4.780575880298137
 31
0.0
  0
MTEXT
  5
A0A
330
A07
100
AcDbEntity
  8
0
 62
     0
100
AcDbMText
 10
20.79887348158862
 20
4.848868608095071
 30
0.0
 40
0.1
 41
0.0
 46
0.0
 71
     5
 72
     1
  1
\A1;R0.8141
  7
small
 73
     1
 44
1.0
  0
SOLID
  5
A0B
330
A07
100
AcDbEntity
  8
0
 62
     0
100
AcDbTrace
 10
21.25202807436841
 20
4.7857428247263
 30
0.0
 11
21.22926383176944
 21
4.775408935869975
 31
0.0
 12
21.2716476196379
 22
4.712283152501202
 32
0.0
 13
21.2716476196379
 23
4.712283152501202
 33
0.0
  0
LINE
  5
A0C
330
A07
100
AcDbEntity
  8
0
 62
     0
370
    -2
100
AcDbLine
 10
21.51816166809137
 20
3.970985510977759
 30
0.0
 11
21.69816166809137
 21
3.970985510977759
 31
0.0
  0
LINE
  5
A0D
330
A07
100
AcDbEntity
  8
0
 62
     0
370
    -2
100
AcDbLine
 10
21.60816166809136
 20
3.880985510977757
 30
0.0
 11
21.60816166809137
 21
4.060985510977758
 31
0.0
  0
POINT
  5
A0E
330
A07
100
AcDbEntity
  8
Defpoints
 62
     0
100
AcDbPoint
 10
21.2716476196379
 20
4.712283152501202
 30
0.0
  0
POINT
  5
A0F
330
A07
100
AcDbEntity
  8
Defpoints
 62
     0
100
AcDbPoint
 10
21.60816166809137
 20
3.970985510977759
 30
0.0
  0
ENDBLK
  5
A11
330
A07
100
AcDbEntity
  8
0
100
AcDbBlockEnd
  0
BLOCK
  5
A19
330
A12
100
AcDbEntity
  8
0
100
AcDbBlockBegin
  2
*D9
 70
     1
 10
0.0
 20
0.0
 30
0.0
  3
*D9
  1

  0
LINE
  5
A13
330
A12
100
AcDbEntity
  8
0
 62
     0
370
    -2
100
AcDbLine
 10
21.06100141366542
 20
4.452924728956475
 30
0.0
 11
21.13600141366542
 21
4.452924728956474
 31
0.0
  0
LINE
  5
A14
330
A12
100
AcDbEntity
  8
0
 62
     0
370
    -2
100
AcDbLine
 10
21.13600141366542
 20
4.452924728956474
 30
0.0
 11
21.16459000989098
 21
4.52226225246181
 31
0.0
  0
MTEXT
  5
A15
330
A12
100
AcDbEntity
  8
0
 62
     0
100
AcDbMText
 10
20.71578313262859
 20
4.452924728956477
 30
0.0
 40
0.1
 41
0.0
 46
0.0
 71
     5
 72
     1
  1
\A1;R0.2124
  7
small
 73
     1
 44
1.0
  0
SOLID
  5
A16
330
A12
100
AcDbEntity
  8
0
 62
     0
100
AcDbTrace
 10
21.15303375597342
 20
4.527027018499401
 30
0.0
 11
21.17614626380853
 21
4.517497486424217
 31
0.0
 12
21.19317860611653
 22
4.59159977596714
 32
0.0
 13
21.19317860611653
 23
4.59159977596714
 33
0.0
  0
POINT
  5
A17
330
A12
100
AcDbEntity
  8
Defpoints
 62
     0
100
AcDbPoint
 10
21.19317860611653
 20
4.59159977596714
 30
0.0
  0
POINT
  5
A18
330
A12
100
AcDbEntity
  8
Defpoints
 62
     0
100
AcDbPoint
 10
21.11222999590387
 20
4.395270578161784
 30
0.0
  0
ENDBLK
  5
A1A
330
A12
100
AcDbEntity
  8
0
100
AcDbBlockEnd
  0
BLOCK
  5
A24
330
A1B
100
AcDbEntity
  8
0
100
AcDbBlockBegin
  2
*D10
 70
     1
 10
0.0
 20
0.0
 30
0.0
  3
*D10
  1

  0
LINE
  5
A1C
330
A1B
100
AcDbEntity
  8
0
 62
     0
370
    -2
100
AcDbLine
 10
21.09159879520194
 20
4.300340056785728
 30
0.0
 11
21.16659879520194
 21
4.300340056785726
 31
0.0
  0
LINE
  5
A1D
330
A1B
100
AcDbEntity
  8
0
 62
     0
370
    -2
100
AcDbLine
 10
21.16659879520194
 20
4.300340056785726
 30
0.0
 11
21.26359286293479
 21
4.444748571665257
 31
0.0
  0
MTEXT
  5
A1E
330
A1B
100
AcDbEntity
  8
0
 62
     0
100
AcDbMText
 10
20.75582799029062
 20
4.30034005678573
 30
0.0
 40
0.1
 41
0.0
 46
0.0
 71
     5
 72
     1
  1
\A1;R0.1991
  7
small
 73
     1
 44
1.0
  0
SOLID
  5
A1F
330
A1B
100
AcDbEntity
  8
0
 62
     0
100
AcDbTrace
 10
21.25321623174794
 20
4.451718186088733
 30
0.0
 11
21.27396949412165
 21
4.437778957241784
 31
0.0
 12
21.30541054947565
 22
4.507008358786409
 32
0.0
 13
21.30541054947565
 23
4.507008358786409
 33
0.0
  0
LINE
  5
A20
330
A1B
100
AcDbEntity
  8
0
 62
     0
370
    -2
100
AcDbLine
 10
21.32644384367785
 20
4.672319016362749
 30
0.0
 11
21.50644384367784
 21
4.672319016362749
 31
0.0
  0
LINE
  5
A21
330
A1B
100
AcDbEntity
  8
0
 62
     0
370
    -2
100
AcDbLine
 10
21.41644384367785
 20
4.582319016362749
 30
0.0
 11
21.41644384367785
 21
4.76231901636275
 31
0.0
  0
POINT
  5
A22
330
A1B
100
AcDbEntity
  8
Defpoints
 62
     0
100
AcDbPoint
 10
21.30541054947565
 20
4.507008358786409
 30
0.0
  0
POINT
  5
A23
330
A1B
100
AcDbEntity
  8
Defpoints
 62
     0
100
AcDbPoint
 10
21.41644384367785
 20
4.672319016362749
 30
0.0
  0
ENDBLK
  5
A25
330
A1B
100
AcDbEntity
  8
0
100
AcDbBlockEnd
  0
BLOCK
  5
A30
330
A26
100
AcDbEntity
  8
0
100
AcDbBlockBegin
  2
*D11
 70
     1
 10
0.0
 20
0.0
 30
0.0
  3
*D11
  1

  0
LINE
  5
A27
330
A26
100
AcDbEntity
  8
0
 62
     0
370
    -2
100
AcDbLine
 10
25.05698916678668
 20
4.410800853362636
 30
0.0
 11
25.05698916678668
 21
4.127107797993598
 31
0.0
  0
LINE
  5
A28
330
A26
100
AcDbEntity
  8
0
 62
     0
370
    -2
100
AcDbLine
 10
25.08198916678668
 20
4.410800853362636
 30
0.0
 11
25.08198916678668
 21
4.127107797993598
 31
0.0
  0
LINE
  5
A29
330
A26
100
AcDbEntity
  8
0
 62
     0
370
    -2
100
AcDbLine
 10
25.06948916678668
 20
4.307107797993598
 30
0.0
 11
25.06948916678668
 21
3.877878602904921
 31
0.0
  0
LINE
  5
A2A
330
A26
100
AcDbEntity
  8
0
 62
     0
370
    -2
100
AcDbLine
 10
25.06948916678668
 20
3.877878602904921
 30
0.0
 11
25.24948916678668
 21
3.877878602904921
 31
0.0
  0
MTEXT
  5
A2B
330
A26
100
AcDbEntity
  8
0
 62
     0
100
AcDbMText
 10
25.54689025819186
 20
3.877878602904921
 30
0.0
 40
0.1
 41
0.0
 46
0.0
 71
     5
 72
     1
  1
\A1;0.0250
  7
small
 73
     1
 44
1.0
  0
LINE
  5
A2C
330
A26
100
AcDbEntity
  8
0
 62
     0
370
    -2
100
AcDbLine
 10
25.05698916678668
 20
4.307107797993598
 30
0.0
 11
25.08198916678668
 21
4.307107797993598
 31
0.0
  0
POINT
  5
A2D
330
A26
100
AcDbEntity
  8
Defpoints
 62
     0
100
AcDbPoint
 10
25.05698916678668
 20
4.473300853362636
 30
0.0
  0
POINT
  5
A2E
330
A26
100
AcDbEntity
  8
Defpoints
 62
     0
100
AcDbPoint
 10
25.08198916678668
 20
4.473300853362636
 30
0.0
  0
POINT
  5
A2F
330
A26
100
AcDbEntity
  8
Defpoints
 62
     0
100
AcDbPoint
 10
25.08198916678668
 20
4.307107797993598
 30
0.0
  0
ENDBLK
  5
A31
330
A26
100
AcDbEntity
  8
0
100
AcDbBlockEnd
  0
BLOCK
  5
A39
330
A32
100
AcDbEntity
  8
0
100
AcDbBlockBegin
  2
*D12
 70
     1
 10
0.0
 20
0.0
 30
0.0
  3
*D12
  1

  0
LINE
  5
A33
330
A32
100
AcDbEntity
  8
0
 62
     0
370
    -2
100
AcDbLine
 10
25.14448916678668
 20
4.784300853362636
 30
0.0
 11
25.48691055815882
 21
4.784300853362636
 31
0.0
  0
LINE
  5
A34
330
A32
100
AcDbEntity
  8
0
 62
     0
370
    -2
100
AcDbLine
 10
25.14448916678668
 20
4.473300853362636
 30
0.0
 11
25.48691055815882
 21
4.473300853362636
 31
0.0
  0
MTEXT
  5
A35
330
A32
100
AcDbEntity
  8
0
 62
     0
100
AcDbMText
 10
25.30691055815883
 20
4.62880085336264
 30
0.0
 40
0.1
 41
0.0
 46
0.0
 71
     5
 72
     1
  1
\A1;0.3110
  7
small
 73
     1
 44
1.0
  0
POINT
  5
A36
330
A32
100
AcDbEntity
  8
Defpoints
 62
     0
100
AcDbPoint
 10
25.08198916678668
 20
4.784300853362636
 30
0.0
  0
POINT
  5
A37
330
A32
100
AcDbEntity
  8
Defpoints
 62
     0
100
AcDbPoint
 10
25.08198916678668
 20
4.473300853362636
 30
0.0
  0
POINT
  5
A38
330
A32
100
AcDbEntity
  8
Defpoints
 62
     0
100
AcDbPoint
 10
25.30691055815883
 20
4.473300853362636
 30
0.0
  0
ENDBLK
  5
A3A
330
A32
100
AcDbEntity
  8
0
100
AcDbBlockEnd
  0
BLOCK
  5
A45
330
A3B
100
AcDbEntity
  8
0
100
AcDbBlockBegin
  2
*D13
 70
     1
 10
0.0
 20
0.0
 30
0.0
  3
*D13
  1

  0
LINE
  5
A3C
330
A3B
100
AcDbEntity
  8
0
 62
     0
370
    -2
100
AcDbLine
 10
21.10035591469701
 20
6.126165382729726
 30
0.0
 11
21.10035591469701
 21
6.535825291628722
 31
0.0
  0
LINE
  5
A3D
330
A3B
100
AcDbEntity
  8
0
 62
     0
370
    -2
100
AcDbLine
 10
21.0563558915612
 20
6.120165382729719
 30
0.0
 11
21.0563558915612
 21
6.535825291628722
 31
0.0
  0
LINE
  5
A3E
330
A3B
100
AcDbEntity
  8
0
 62
     0
370
    -2
100
AcDbLine
 10
21.07835590312911
 20
6.355825291628723
 30
0.0
 11
21.07835590312911
 21
6.682939889173061
 31
0.0
  0
LINE
  5
A3F
330
A3B
100
AcDbEntity
  8
0
 62
     0
370
    -2
100
AcDbLine
 10
21.07835590312911
 20
6.682939889173061
 30
0.0
 11
21.25835590312911
 21
6.682939889173061
 31
0.0
  0
MTEXT
  5
A40
330
A3B
100
AcDbEntity
  8
0
 62
     0
100
AcDbMText
 10
21.55575699453429
 20
6.682939889173061
 30
0.0
 40
0.1
 41
0.0
 46
0.0
 71
     5
 72
     1
  1
\A1;0.0440
  7
small
 73
     1
 44
1.0
  0
LINE
  5
A41
330
A3B
100
AcDbEntity
  8
0
 62
     0
370
    -2
100
AcDbLine
 10
21.10035591469701
 20
6.355825291628723
 30
0.0
 11
21.0563558915612
 21
6.355825291628723
 31
0.0
  0
POINT
  5
A42
330
A3B
100
AcDbEntity
  8
Defpoints
 62
     0
100
AcDbPoint
 10
21.10035591469701
 20
6.063665382729726
 30
0.0
  0
POINT
  5
A43
330
A3B
100
AcDbEntity
  8
Defpoints
 62
     0
100
AcDbPoint
 10
21.0563558915612
 20
6.057665382729719
 30
0.0
  0
POINT
  5
A44
330
A3B
100
AcDbEntity
  8
Defpoints
 62
     0
100
AcDbPoint
 10
21.0563558915612
 20
6.355825291628723
 30
0.0
  0
ENDBLK
  5
A46
330
A3B
100
AcDbEntity
  8
0
100
AcDbBlockEnd
  0
BLOCK
  5
A52
330
A47
100
AcDbEntity
  8
0
100
AcDbBlockBegin
  2
*D14
 70
     1
 10
0.0
 20
0.0
 30
0.0
  3
*D14
  1

  0
LINE
  5
A48
330
A47
100
AcDbEntity
  8
0
 62
     0
370
    -2
100
AcDbLine
 10
21.0563558915612
 20
6.120165382729719
 30
0.0
 11
21.0563558915612
 21
6.535825291628722
 31
0.0
  0
LINE
  5
A49
330
A47
100
AcDbEntity
  8
0
 62
     0
370
    -2
100
AcDbLine
 10
19.9263558915612
 20
6.06816538272972
 30
0.0
 11
19.9263558915612
 21
6.535825291628722
 31
0.0
  0
LINE
  5
A4A
330
A47
100
AcDbEntity
  8
0
 62
     0
370
    -2
100
AcDbLine
 10
20.9813558915612
 20
6.355825291628723
 30
0.0
 11
20.78405029810963
 21
6.355825291628723
 31
0.0
  0
LINE
  5
A4B
330
A47
100
AcDbEntity
  8
0
 62
     0
370
    -2
100
AcDbLine
 10
20.0013558915612
 20
6.355825291628723
 30
0.0
 11
20.19866148501277
 21
6.355825291628723
 31
0.0
  0
SOLID
  5
A4C
330
A47
100
AcDbEntity
  8
0
 62
     0
100
AcDbTrace
 10
20.9813558915612
 20
6.368325291628723
 30
0.0
 11
20.9813558915612
 21
6.343325291628723
 31
0.0
 12
21.0563558915612
 22
6.355825291628723
 32
0.0
 13
21.0563558915612
 23
6.355825291628723
 33
0.0
  0
SOLID
  5
A4D
330
A47
100
AcDbEntity
  8
0
 62
     0
100
AcDbTrace
 10
20.0013558915612
 20
6.368325291628723
 30
0.0
 11
20.0013558915612
 21
6.343325291628723
 31
0.0
 12
19.9263558915612
 22
6.355825291628723
 32
0.0
 13
19.9263558915612
 23
6.355825291628723
 33
0.0
  0
MTEXT
  5
A4E
330
A47
100
AcDbEntity
  8
0
 62
     0
100
AcDbMText
 10
20.4913558915612
 20
6.355825291628723
 30
0.0
 40
0.1
 41
0.0
 46
0.0
 71
     5
 72
     1
  1
\A1;1.1300
  7
small
 73
     1
 44
1.0
  0
POINT
  5
A4F
330
A47
100
AcDbEntity
  8
Defpoints
 62
     0
100
AcDbPoint
 10
21.0563558915612
 20
6.057665382729719
 30
0.0
  0
POINT
  5
A50
330
A47
100
AcDbEntity
  8
Defpoints
 62
     0
100
AcDbPoint
 10
19.9263558915612
 20
6.00566538272972
 30
0.0
  0
POINT
  5
A51
330
A47
100
AcDbEntity
  8
Defpoints
 62
     0
100
AcDbPoint
 10
19.9263558915612
 20
6.355825291628723
 30
0.0
  0
ENDBLK
  5
A53
330
A47
100
AcDbEntity
  8
0
100
AcDbBlockEnd
  0
BLOCK
  5
A5E
330
A54
100
AcDbEntity
  8
0
100
AcDbBlockBegin
  2
*D15
 70
     1
 10
0.0
 20
0.0
 30
0.0
  3
*D15
  1

  0
LINE
  5
A55
330
A54
100
AcDbEntity
  8
0
 62
     0
370
    -2
100
AcDbLine
 10
19.9263558915612
 20
6.06816538272972
 30
0.0
 11
19.9263558915612
 21
6.535825291628722
 31
0.0
  0
LINE
  5
A56
330
A54
100
AcDbEntity
  8
0
 62
     0
370
    -2
100
AcDbLine
 10
19.8833558915612
 20
6.108165382729719
 30
0.0
 11
19.8833558915612
 21
6.535825291628722
 31
0.0
  0
LINE
  5
A57
330
A54
100
AcDbEntity
  8
0
 62
     0
370
    -2
100
AcDbLine
 10
19.9048558915612
 20
6.355825291628723
 30
0.0
 11
19.9048558915612
 21
6.683008101997072
 31
0.0
  0
LINE
  5
A58
330
A54
100
AcDbEntity
  8
0
 62
     0
370
    -2
100
AcDbLine
 10
19.9048558915612
 20
6.683008101997072
 30
0.0
 11
20.0848558915612
 21
6.683008101997072
 31
0.0
  0
MTEXT
  5
A59
330
A54
100
AcDbEntity
  8
0
 62
     0
100
AcDbMText
 10
20.38225698296638
 20
6.683008101997072
 30
0.0
 40
0.1
 41
0.0
 46
0.0
 71
     5
 72
     1
  1
\A1;0.0430
  7
small
 73
     1
 44
1.0
  0
LINE
  5
A5A
330
A54
100
AcDbEntity
  8
0
 62
     0
370
    -2
100
AcDbLine
 10
19.9263558915612
 20
6.355825291628723
 30
0.0
 11
19.8833558915612
 21
6.355825291628723
 31
0.0
  0
POINT
  5
A5B
330
A54
100
AcDbEntity
  8
Defpoints
 62
     0
100
AcDbPoint
 10
19.9263558915612
 20
6.00566538272972
 30
0.0
  0
POINT
  5
A5C
330
A54
100
AcDbEntity
  8
Defpoints
 62
     0
100
AcDbPoint
 10
19.8833558915612
 20
6.045665382729719
 30
0.0
  0
POINT
  5
A5D
330
A54
100
AcDbEntity
  8
Defpoints
 62
     0
100
AcDbPoint
 10
19.8833558915612
 20
6.355825291628723
 30
0.0
  0
ENDBLK
  5
A5F
330
A54
100
AcDbEntity
  8
0
100
AcDbBlockEnd
  0
BLOCK
  5
A6A
330
A60
100
AcDbEntity
  8
0
100
AcDbBlockBegin
  2
*D16
 70
     1
 10
0.0
 20
0.0
 30
0.0
  3
*D16
  1

  0
LINE
  5
A61
330
A60
100
AcDbEntity
  8
0
 62
     0
370
    -2
100
AcDbLine
 10
19.8833558915612
 20
6.108165382729719
 30
0.0
 11
19.8833558915612
 21
6.535825291628722
 31
0.0
  0
LINE
  5
A62
330
A60
100
AcDbEntity
  8
0
 62
     0
370
    -2
100
AcDbLine
 10
19.8113558915612
 20
6.02716538272972
 30
0.0
 11
19.8113558915612
 21
6.535825291628722
 31
0.0
  0
LINE
  5
A63
330
A60
100
AcDbEntity
  8
0
 62
     0
370
    -2
100
AcDbLine
 10
19.8473558915612
 20
6.355825291628723
 30
0.0
 11
19.8473558915612
 21
6.829906241439856
 31
0.0
  0
LINE
  5
A64
330
A60
100
AcDbEntity
  8
0
 62
     0
370
    -2
100
AcDbLine
 10
19.8473558915612
 20
6.829906241439856
 30
0.0
 11
20.0273558915612
 21
6.829906241439856
 31
0.0
  0
MTEXT
  5
A65
330
A60
100
AcDbEntity
  8
0
 62
     0
100
AcDbMText
 10
20.32475698296638
 20
6.829906241439856
 30
0.0
 40
0.1
 41
0.0
 46
0.0
 71
     5
 72
     1
  1
\A1;0.0720
  7
small
 73
     1
 44
1.0
  0
LINE
  5
A66
330
A60
100
AcDbEntity
  8
0
 62
     0
370
    -2
100
AcDbLine
 10
19.8833558915612
 20
6.355825291628723
 30
0.0
 11
19.8113558915612
 21
6.355825291628723
 31
0.0
  0
POINT
  5
A67
330
A60
100
AcDbEntity
  8
Defpoints
 62
     0
100
AcDbPoint
 10
19.8833558915612
 20
6.045665382729719
 30
0.0
  0
POINT
  5
A68
330
A60
100
AcDbEntity
  8
Defpoints
 62
     0
100
AcDbPoint
 10
19.8113558915612
 20
5.96466538272972
 30
0.0
  0
POINT
  5
A69
330
A60
100
AcDbEntity
  8
Defpoints
 62
     0
100
AcDbPoint
 10
19.8113558915612
 20
6.355825291628723
 30
0.0
  0
ENDBLK
  5
A6B
330
A60
100
AcDbEntity
  8
0
100
AcDbBlockEnd
  0
BLOCK
  5
A77
330
A6C
100
AcDbEntity
  8
0
100
AcDbBlockBegin
  2
*D17
 70
     1
 10
0.0
 20
0.0
 30
0.0
  3
*D17
  1

  0
LINE
  5
A6D
330
A6C
100
AcDbEntity
  8
0
 62
     0
370
    -2
100
AcDbLine
 10
19.8113558915612
 20
5.90216538272972
 30
0.0
 11
19.8113558915612
 21
5.676820102778353
 31
0.0
  0
LINE
  5
A6E
330
A6C
100
AcDbEntity
  8
0
 62
     0
370
    -2
100
AcDbLine
 10
21.30351002174753
 20
5.90216538272972
 30
0.0
 11
21.30351002174753
 21
5.676820102778353
 31
0.0
  0
LINE
  5
A6F
330
A6C
100
AcDbEntity
  8
0
 62
     0
370
    -2
100
AcDbLine
 10
19.8863558915612
 20
5.856820102778352
 30
0.0
 11
20.26507961422599
 21
5.856820102778352
 31
0.0
  0
LINE
  5
A70
330
A6C
100
AcDbEntity
  8
0
 62
     0
370
    -2
100
AcDbLine
 10
21.22851002174753
 20
5.856820102778352
 30
0.0
 11
20.84978629908274
 21
5.856820102778352
 31
0.0
  0
SOLID
  5
A71
330
A6C
100
AcDbEntity
  8
0
 62
     0
100
AcDbTrace
 10
19.8863558915612
 20
5.869320102778353
 30
0.0
 11
19.8863558915612
 21
5.844320102778352
 31
0.0
 12
19.8113558915612
 22
5.856820102778352
 32
0.0
 13
19.8113558915612
 23
5.856820102778352
 33
0.0
  0
SOLID
  5
A72
330
A6C
100
AcDbEntity
  8
0
 62
     0
100
AcDbTrace
 10
21.22851002174753
 20
5.869320102778353
 30
0.0
 11
21.22851002174753
 21
5.844320102778352
 31
0.0
 12
21.30351002174753
 22
5.856820102778352
 32
0.0
 13
21.30351002174753
 23
5.856820102778352
 33
0.0
  0
MTEXT
  5
A73
330
A6C
100
AcDbEntity
  8
0
 62
     0
100
AcDbMText
 10
20.55743295665437
 20
5.856820102778352
 30
0.0
 40
0.1
 41
0.0
 46
0.0
 71
     5
 72
     1
  1
\A1;1.4922
  7
small
 73
     1
 44
1.0
  0
POINT
  5
A74
330
A6C
100
AcDbEntity
  8
Defpoints
 62
     0
100
AcDbPoint
 10
19.8113558915612
 20
5.96466538272972
 30
0.0
  0
POINT
  5
A75
330
A6C
100
AcDbEntity
  8
Defpoints
 62
     0
100
AcDbPoint
 10
21.30351002174753
 20
5.96466538272972
 30
0.0
  0
POINT
  5
A76
330
A6C
100
AcDbEntity
  8
Defpoints
 62
     0
100
AcDbPoint
 10
21.30351002174753
 20
5.856820102778352
 30
0.0
  0
ENDBLK
  5
A78
330
A6C
100
AcDbEntity
  8
0
100
AcDbBlockEnd
  0
BLOCK
  5
A83
330
A79
100
AcDbEntity
  8
0
100
AcDbBlockBegin
  2
*D18
 70
     1
 10
0.0
 20
0.0
 30
0.0
  3
*D18
  1

  0
LINE
  5
A7A
330
A79
100
AcDbEntity
  8
0
 62
     0
370
    -2
100
AcDbLine
 10
19.8208558915612
 20
6.045665382729719
 30
0.0
 11
19.53950007245248
 21
6.045665382729719
 31
0.0
  0
LINE
  5
A7B
330
A79
100
AcDbEntity
  8
0
 62
     0
370
    -2
100
AcDbLine
 10
19.7488558915612
 20
5.96466538272972
 30
0.0
 11
19.53950007245248
 21
5.96466538272972
 31
0.0
  0
LINE
  5
A7C
330
A79
100
AcDbEntity
  8
0
 62
     0
370
    -2
100
AcDbLine
 10
19.71950007245248
 20
6.005165382729719
 30
0.0
 11
19.39238547490814
 21
6.005165382729719
 31
0.0
  0
LINE
  5
A7D
330
A79
100
AcDbEntity
  8
0
 62
     0
370
    -2
100
AcDbLine
 10
19.39238547490814
 20
6.005165382729719
 30
0.0
 11
19.21238547490814
 21
6.005165382729719
 31
0.0
  0
MTEXT
  5
A7E
330
A79
100
AcDbEntity
  8
0
 62
     0
100
AcDbMText
 10
18.91498438350296
 20
6.005165382729723
 30
0.0
 40
0.1
 41
0.0
 46
0.0
 71
     5
 72
     1
  1
\A1;0.0810
  7
small
 73
     1
 44
1.0
  0
LINE
  5
A7F
330
A79
100
AcDbEntity
  8
0
 62
     0
370
    -2
100
AcDbLine
 10
19.71950007245248
 20
6.045665382729719
 30
0.0
 11
19.71950007245248
 21
5.96466538272972
 31
0.0
  0
POINT
  5
A80
330
A79
100
AcDbEntity
  8
Defpoints
 62
     0
100
AcDbPoint
 10
19.8833558915612
 20
6.045665382729719
 30
0.0
  0
POINT
  5
A81
330
A79
100
AcDbEntity
  8
Defpoints
 62
     0
100
AcDbPoint
 10
19.8113558915612
 20
5.96466538272972
 30
0.0
  0
POINT
  5
A82
330
A79
100
AcDbEntity
  8
Defpoints
 62
     0
100
AcDbPoint
 10
19.71950007245248
 20
5.96466538272972
 30
0.0
  0
ENDBLK
  5
A84
330
A79
100
AcDbEntity
  8
0
100
AcDbBlockEnd
  0
BLOCK
  5
AD8
330
A92
100
AcDbEntity
  8
0
100
AcDbBlockBegin
  2
smaller diamond
 70
     0
 10
0.0
 20
0.0
 30
0.0
  3
smaller diamond
  1

  0
LINE
  5
A93
330
A92
100
AcDbEntity
  8
0
100
AcDbLine
 10
24.35385591469704
 20
4.473300853362636
 30
0.0
 11
21.42335591469698
 21
4.473300853362636
 31
0.0
  0
LINE
  5
A94
330
A92
100
AcDbEntity
  8
0
100
AcDbLine
 10
24.35385591469704
 20
4.784300853362636
 30
0.0
 11
21.57235591469699
 21
4.784300853362636
 31
0.0
  0
LINE
  5
A95
330
A92
100
AcDbEntity
  8
0
100
AcDbLine
 10
24.47435591469703
 20
4.593800853362638
 30
0.0
 11
24.47435591469703
 21
4.663800853362636
 31
0.0
  0
ARC
  5
A96
330
A92
100
AcDbEntity
  8
0
100
AcDbCircle
 10
21.60816166809137
 20
3.970985510977757
 30
0.0
 40
0.8141031250000029
100
AcDbArc
 50
92.5207869562482
 51
128.5913034829189
  0
ARC
  5
A97
330
A92
100
AcDbEntity
  8
0
100
AcDbCircle
 10
21.11222999590387
 20
4.395270578161782
 30
0.0
 40
0.2123625000000159
100
AcDbArc
 50
43.07360366990042
 51
93.20531985652186
  0
ARC
  5
A98
330
A92
100
AcDbEntity
  8
0
100
AcDbCircle
 10
21.41644384367785
 20
4.672319016362751
 30
0.0
 40
0.1991381578947491
100
AcDbArc
 50
221.5250625290709
 51
271.989131899025
  0
ARC
  5
A99
330
A92
100
AcDbEntity
  8
0
100
AcDbCircle
 10
24.35385591469704
 20
4.663800853362636
 30
0.0
 40
0.1204999999999998
100
AcDbArc
 50
0.0
 51
90.0
  0
ARC
  5
A9A
330
A92
100
AcDbEntity
  8
0
100
AcDbCircle
 10
24.35385591469704
 20
4.593800853362636
 30
0.0
 40
0.1204999999999998
100
AcDbArc
 50
270.0
 51
0.0000000000010178
  0
LINE
  5
A9B
330
A92
100
AcDbEntity
  8
0
100
AcDbLine
 10
25.08198916678668
 20
4.473300853362636
 30
0.0
 11
25.05698916678668
 21
4.473300853362636
 31
0.0
  0
LINE
  5
A9C
330
A92
100
AcDbEntity
  8
0
100
AcDbLine
 10
25.08198916678668
 20
4.784300853362636
 30
0.0
 11
25.05698916678668
 21
4.784300853362636
 31
0.0
  0
LINE
  5
A9D
330
A92
100
AcDbEntity
  8
0
100
AcDbLine
 10
25.08198916678668
 20
4.473300853362636
 30
0.0
 11
25.08198916678668
 21
4.784300853362636
 31
0.0
  0
LINE
  5
A9E
330
A92
100
AcDbEntity
  8
0
100
AcDbLine
 10
25.05698916678668
 20
4.593800853362636
 30
0.0
 11
25.08198916678668
 21
4.593800853362636
 31
0.0
  0
LINE
  5
A9F
330
A92
100
AcDbEntity
  8
0
100
AcDbLine
 10
25.05698916678668
 20
4.663800853362642
 30
0.0
 11
25.08198916678668
 21
4.663800853362642
 31
0.0
  0
LINE
  5
AA0
330
A92
100
AcDbEntity
  8
0
100
AcDbLine
 10
25.05698916678668
 20
4.473300853362636
 30
0.0
 11
25.05698916678668
 21
4.784300853362636
 31
0.0
  0
LINE
  5
AA1
330
A92
100
AcDbEntity
  8
0
100
AcDbLine
 10
21.10035591469702
 20
4.239061370342107
 30
0.0
 11
21.10035591469702
 21
4.214061370342107
 31
0.0
  0
LINE
  5
AA2
330
A92
100
AcDbEntity
  8
0
100
AcDbLine
 10
24.47435591469703
 20
4.239061370342107
 30
0.0
 11
24.47435591469703
 21
4.214061370342107
 31
0.0
  0
LINE
  5
AA3
330
A92
100
AcDbEntity
  8
0
100
AcDbLine
 10
24.47435591469703
 20
4.239061370342107
 30
0.0
 11
21.10035591469702
 21
4.239061370342107
 31
0.0
  0
LINE
  5
AA4
330
A92
100
AcDbEntity
  8
0
100
AcDbLine
 10
24.47435591469703
 20
4.214061370342107
 30
0.0
 11
21.10035591469702
 21
4.214061370342107
 31
0.0
  0
LINE
  5
AA5
330
A92
100
AcDbEntity
  8
0
100
AcDbLine
 10
24.35385591469704
 20
4.214061370342107
 30
0.0
 11
24.35385591469704
 21
4.239061370342107
 31
0.0
  0
LINE
  5
AA6
330
A92
100
AcDbEntity
  8
0
100
AcDbLine
 10
21.41645197859211
 20
4.214061370342107
 30
0.0
 11
21.41645197859211
 21
4.239061370342107
 31
0.0
  0
LINE
  5
AA7
330
A92
100
AcDbEntity
  8
0
100
AcDbLine
 10
21.26735591469703
 20
4.214061370342107
 30
0.0
 11
21.26735591469703
 21
4.239061370342107
 31
0.0
  0
DIMENSION
  5
AA8
102
{ACAD_XDICTIONARY
360
AA9
102
}
330
A92
100
AcDbEntity
  8
0
100
AcDbDimension
280
     0
  2
*D1
 10
21.57235591469699
 20
4.962679484341528
 30
0.0
 11
22.97260389584402
 21
4.962679484341528
 31
0.0
 70
    32
 71
     5
 42
2.800495962294064
 73
     0
 74
     0
 75
     0
  3
small
100
AcDbAlignedDimension
 13
24.37285187699105
 23
4.784300853362636
 33
0.0
 14
21.57235591469699
 24
4.784300853362636
 34
0.0
100
AcDbRotatedDimension
  0
DIMENSION
  5
AAA
102
{ACAD_XDICTIONARY
360
AAB
102
}
330
A92
100
AcDbEntity
  8
0
100
AcDbDimension
280
     0
  2
*D2
 10
21.57235591469699
 20
4.969449103713417
 30
0.0
 11
21.60635591469699
 21
5.296563701257755
 31
0.0
 70
    32
 71
     5
 42
0.4719999999999765
 73
     0
 74
     0
 75
     0
  3
small
100
AcDbAlignedDimension
 13
21.10035591469701
 23
4.607300853362635
 33
0.0
 14
21.57235591469699
 24
4.962679484341528
 34
0.0
100
AcDbRotatedDimension
  0
DIMENSION
  5
AAC
102
{ACAD_XDICTIONARY
360
AAD
102
}
330
A92
100
AcDbEntity
  8
0
100
AcDbDimension
280
     0
  2
*D3
 10
24.47435591469703
 20
3.641678631460822
 30
0.0
 11
22.78735591469702
 21
3.641678631460822
 31
0.0
 70
    32
 71
     5
 42
3.374000000000009
 73
     0
 74
     0
 75
     0
  3
small
100
AcDbAlignedDimension
 13
21.10035591469702
 23
4.214061370342107
 33
0.0
 14
24.47435591469703
 24
4.214061370342107
 34
0.0
100
AcDbRotatedDimension
  0
DIMENSION
  5
AAE
102
{ACAD_XDICTIONARY
360
AAF
102
}
330
A92
100
AcDbEntity
  8
0
100
AcDbDimension
280
     0
  2
*D4
 10
21.26735591469703
 20
4.079836661349624
 30
0.0
 11
21.45385591469703
 21
3.701664765033116
 31
0.0
 70
   160
 71
     5
 42
0.1670000000000158
 73
     0
 74
     0
 75
     0
  3
small
100
AcDbAlignedDimension
 13
21.10035591469702
 23
4.214061370342107
 33
0.0
 14
21.26735591469703
 24
4.214061370342107
 34
0.0
100
AcDbRotatedDimension
  0
DIMENSION
  5
AB0
102
{ACAD_XDICTIONARY
360
AB1
102
}
330
A92
100
AcDbEntity
  8
0
100
AcDbDimension
280
     0
  2
*D5
 10
21.41645197859211
 20
4.079836661349624
 30
0.0
 11
21.61190394664457
 21
3.803779362577455
 31
0.0
 70
   160
 71
     5
 42
0.1490960638950725
 73
     0
 74
     0
 75
     0
  3
small
100
AcDbAlignedDimension
 13
21.26735591469703
 23
4.214061370342107
 33
0.0
 14
21.41645197859211
 24
4.214061370342107
 34
0.0
100
AcDbRotatedDimension
  0
DIMENSION
  5
AB2
102
{ACAD_XDICTIONARY
360
AB3
102
}
330
A92
100
AcDbEntity
  8
0
100
AcDbDimension
280
     0
  2
*D6
 10
24.35385591469704
 20
4.079836661349624
 30
0.0
 11
22.88515394664457
 21
4.079836661349624
 31
0.0
 70
    32
 71
     5
 42
2.937403936104928
 73
     0
 74
     0
 75
     0
  3
small
100
AcDbAlignedDimension
 13
21.41645197859211
 23
4.214061370342107
 33
0.0
 14
24.35385591469704
 24
4.214061370342107
 34
0.0
100
AcDbRotatedDimension
  0
DIMENSION
  5
AB4
102
{ACAD_XDICTIONARY
360
AB5
102
}
330
A92
100
AcDbEntity
  8
0
100
AcDbDimension
280
     0
  2
*D7
 10
24.47435591469703
 20
4.079836661349624
 30
0.0
 11
24.68410591469703
 21
3.701664765033116
 31
0.0
 70
   160
 71
     5
 42
0.1204999999999927
 73
     0
 74
     0
 75
     0
  3
small
100
AcDbAlignedDimension
 13
24.35385591469704
 23
4.214061370342107
 33
0.0
 14
24.47435591469703
 24
4.214061370342107
 34
0.0
100
AcDbRotatedDimension
  0
DIMENSION
  5
AB6
102
{ACAD_XDICTIONARY
360
AB7
102
}
330
A92
100
AcDbEntity
  8
0
100
AcDbDimension
280
     0
  2
*D8
 10
21.60816166809137
 20
3.970985510977759
 30
0.0
 11
20.79887348158862
 21
4.848868608095071
 31
0.0
 70
    36
 71
     5
 42
0.8141031250000008
 73
     0
 74
     0
 75
     0
  3
small
100
AcDbRadialDimension
 15
21.2716476196379
 25
4.712283152501202
 35
0.0
 40
0.0
1001
ACAD
1000
DSTYLE
1002
{
1070
   288
1070
     1
1002
}
1001
ACAD_DSTYLE_DIMRADIAL_EXTENSION
1070
   387
1070
     1
1070
   388
1040
1.614792358922754
1070
   390
1040
2.244341635208187
  0
DIMENSION
  5
AB8
102
{ACAD_XDICTIONARY
360
AB9
102
}
330
A92
100
AcDbEntity
  8
0
100
AcDbDimension
280
     0
  2
*D9
 10
21.11222999590387
 20
4.395270578161784
 30
0.0
 11
21.13600141366542
 21
4.452924728956477
 31
0.0
 70
   164
 71
     5
 42
0.2123625000000153
 73
     0
 74
     0
 75
     0
  3
small
100
AcDbRadialDimension
 15
21.19317860611653
 25
4.59159977596714
 35
0.0
 40
0.0
1001
ACAD
1000
DSTYLE
1002
{
1070
   288
1070
     1
1002
}
1001
ACAD_DSTYLE_DIMRADIAL_EXTENSION
1070
   387
1070
     1
1070
   388
1040
0.7517762047388752
1070
   390
1040
1.626739711870755
  0
DIMENSION
  5
ABA
102
{ACAD_XDICTIONARY
360
ABB
102
}
330
A92
100
AcDbEntity
  8
0
100
AcDbDimension
280
     0
  2
*D10
 10
21.41644384367785
 20
4.672319016362749
 30
0.0
 11
21.16659879520194
 21
4.300340056785728
 31
0.0
 70
   164
 71
     5
 42
0.1991381578947493
 73
     0
 74
     0
 75
     0
  3
small
100
AcDbRadialDimension
 15
21.30541054947565
 25
4.507008358786409
 35
0.0
 40
0.0
1001
ACAD
1000
DSTYLE
1002
{
1070
   288
1070
     1
1002
}
1001
ACAD_DSTYLE_DIMRADIAL_EXTENSION
1070
   387
1070
     1
1070
   388
1040
3.866341716818602
1070
   390
1040
4.747105881279122
  0
DIMENSION
  5
ABC
102
{ACAD_XDICTIONARY
360
ABD
102
}
330
A92
100
AcDbEntity
  8
0
100
AcDbDimension
280
     0
  2
*D11
 10
25.08198916678668
 20
4.307107797993598
 30
0.0
 11
25.33948916678668
 21
3.877878602904921
 31
0.0
 70
    32
 71
     5
 42
0.0249999999999986
 73
     0
 74
     0
 75
     0
  3
small
100
AcDbAlignedDimension
 13
25.05698916678668
 23
4.473300853362636
 33
0.0
 14
25.08198916678668
 24
4.473300853362636
 34
0.0
100
AcDbRotatedDimension
  0
DIMENSION
  5
ABE
102
{ACAD_XDICTIONARY
360
ABF
102
}
330
A92
100
AcDbEntity
  8
0
100
AcDbDimension
280
     0
  2
*D12
 10
25.30691055815883
 20
4.473300853362636
 30
0.0
 11
25.30691055815883
 21
4.62880085336264
 31
0.0
 70
    32
 71
     5
 42
0.3109999999999999
 73
     0
 74
     0
 75
     0
  3
small
100
AcDbAlignedDimension
 13
25.08198916678668
 23
4.784300853362636
 33
0.0
 14
25.08198916678668
 24
4.473300853362636
 34
0.0
 50
90.0
100
AcDbRotatedDimension
  0
XLINE
  5
AC0
330
A92
100
AcDbEntity
  8
0
100
AcDbXline
 10
21.10035591469701
 20
4.607300853362635
 30
0.0
 11
0.0
 21
1.0
 31
0.0
  0
LINE
  5
AC1
330
A92
100
AcDbEntity
  8
0
100
AcDbLine
 10
24.353855914697
 20
5.929665382729721
 30
0.0
 11
21.42335591469695
 21
5.929665382729721
 31
0.0
  0
LINE
  5
AC2
330
A92
100
AcDbEntity
  8
0
100
AcDbLine
 10
24.353855914697
 20
6.240665382729721
 30
0.0
 11
21.57235591469695
 21
6.240665382729721
 31
0.0
  0
LINE
  5
AC3
330
A92
100
AcDbEntity
  8
0
100
AcDbLine
 10
24.474355914697
 20
6.050165382729723
 30
0.0
 11
24.474355914697
 21
6.120165382729721
 31
0.0
  0
ARC
  5
AC4
330
A92
100
AcDbEntity
  8
0
100
AcDbCircle
 10
21.60816166809134
 20
5.427350040344842
 30
0.0
 40
0.8141031250000029
100
AcDbArc
 50
92.52078695624824
 51
128.5913034829189
  0
ARC
  5
AC5
330
A92
100
AcDbEntity
  8
0
100
AcDbCircle
 10
21.41644384367781
 20
6.128683545729836
 30
0.0
 40
0.1991381578947491
100
AcDbArc
 50
235.4508548306223
 51
271.989131899025
  0
ARC
  5
AC6
330
A92
100
AcDbEntity
  8
0
100
AcDbCircle
 10
24.353855914697
 20
6.120165382729721
 30
0.0
 40
0.1204999999999998
100
AcDbArc
 50
0.0
 51
90.0
  0
ARC
  5
AC7
330
A92
100
AcDbEntity
  8
0
100
AcDbCircle
 10
24.353855914697
 20
6.050165382729721
 30
0.0
 40
0.1204999999999998
100
AcDbArc
 50
270.0
 51
0.0000000000010178
  0
LINE
  5
AC8
330
A92
100
AcDbEntity
  8
0
100
AcDbLine
 10
19.8113558915612
 20
5.96466538272972
 30
0.0
 11
21.30351002174753
 21
5.96466538272972
 31
0.0
  0
LINE
  5
AC9
330
A92
100
AcDbEntity
  8
0
100
AcDbLine
 10
21.0563558915612
 20
6.057665382729719
 30
0.0
 11
21.10035591469701
 21
6.063665382729721
 31
0.0
  0
LINE
  5
ACA
330
A92
100
AcDbEntity
  8
0
100
AcDbLine
 10
19.9263558915612
 20
6.00566538272972
 30
0.0
 11
21.0563558915612
 21
6.057665382729719
 31
0.0
  0
LINE
  5
ACB
330
A92
100
AcDbEntity
  8
0
100
AcDbLine
 10
19.9263558915612
 20
6.00566538272972
 30
0.0
 11
19.8833558915612
 21
6.045665382729719
 31
0.0
  0
LINE
  5
ACC
330
A92
100
AcDbEntity
  8
0
100
AcDbLine
 10
19.8833558915612
 20
6.045665382729719
 30
0.0
 11
19.8113558915612
 21
5.96466538272972
 31
0.0
  0
DIMENSION
  5
ACD
102
{ACAD_XDICTIONARY
360
ACE
102
}
330
A92
100
AcDbEntity
  8
0
100
AcDbDimension
280
     0
  2
*D13
 10
21.0563558915612
 20
6.355825291628723
 30
0.0
 11
21.34835590312911
 21
6.682939889173061
 31
0.0
 70
    32
 71
     5
 42
0.0440000231358049
 73
     0
 74
     0
 75
     0
  3
small
100
AcDbAlignedDimension
 13
21.10035591469701
 23
6.063665382729726
 33
0.0
 14
21.0563558915612
 24
6.057665382729719
 34
0.0
100
AcDbRotatedDimension
  0
DIMENSION
  5
ACF
102
{ACAD_XDICTIONARY
360
AD0
102
}
330
A92
100
AcDbEntity
  8
0
100
AcDbDimension
280
     0
  2
*D14
 10
19.9263558915612
 20
6.355825291628723
 30
0.0
 11
20.4913558915612
 21
6.355825291628723
 31
0.0
 70
    32
 71
     5
 42
1.130000000000002
 73
     0
 74
     0
 75
     0
  3
small
100
AcDbAlignedDimension
 13
21.0563558915612
 23
6.057665382729719
 33
0.0
 14
19.9263558915612
 24
6.00566538272972
 34
0.0
100
AcDbRotatedDimension
  0
DIMENSION
  5
AD1
102
{ACAD_XDICTIONARY
360
AD2
102
}
330
A92
100
AcDbEntity
  8
0
100
AcDbDimension
280
     0
  2
*D15
 10
19.8833558915612
 20
6.355825291628723
 30
0.0
 11
20.1748558915612
 21
6.683008101997072
 31
0.0
 70
    32
 71
     5
 42
0.0429999999999993
 73
     0
 74
     0
 75
     0
  3
small
100
AcDbAlignedDimension
 13
19.9263558915612
 23
6.00566538272972
 33
0.0
 14
19.8833558915612
 24
6.045665382729719
 34
0.0
100
AcDbRotatedDimension
  0
DIMENSION
  5
AD3
102
{ACAD_XDICTIONARY
360
AD4
102
}
330
A92
100
AcDbEntity
  8
0
100
AcDbDimension
280
     0
  2
*D16
 10
19.8113558915612
 20
6.355825291628723
 30
0.0
 11
20.1173558915612
 21
6.829906241439856
 31
0.0
 70
   160
 71
     5
 42
0.0719999999999992
 73
     0
 74
     0
 75
     0
  3
small
100
AcDbAlignedDimension
 13
19.8833558915612
 23
6.045665382729719
 33
0.0
 14
19.8113558915612
 24
5.96466538272972
 34
0.0
100
AcDbRotatedDimension
  0
DIMENSION
  5
AD5
102
{ACAD_XDICTIONARY
360
AD6
102
}
330
A92
100
AcDbEntity
  8
0
100
AcDbDimension
280
     0
  2
*D17
 10
21.30351002174753
 20
5.856820102778352
 30
0.0
 11
20.55743295665437
 21
5.856820102778352
 31
0.0
 70
    32
 71
     5
 42
1.492154130186328
 73
     0
 74
     0
 75
     0
  3
small
100
AcDbAlignedDimension
 13
19.8113558915612
 23
5.96466538272972
 33
0.0
 14
21.30351002174753
 24
5.96466538272972
 34
0.0
100
AcDbRotatedDimension
  0
DIMENSION
  5
AD7
330
A92
100
AcDbEntity
  8
0
100
AcDbDimension
280
     0
  2
*D18
 10
19.71950007245248
 20
5.96466538272972
 30
0.0
 11
19.12238547490814
 21
6.005165382729723
 31
0.0
 70
    32
 71
     5
 42
0.0809999999999995
 73
     0
 74
     0
 75
     0
  3
small
100
AcDbAlignedDimension
 13
19.8833558915612
 23
6.045665382729719
 33
0.0
 14
19.8113558915612
 24
5.96466538272972
 34
0.0
 50
90.0
100
AcDbRotatedDimension
  0
ENDBLK
  5
AD9
330
A92
100
AcDbEntity
  8
0
100
AcDbBlockEnd
  0
BLOCK
  5
109A
330
1094
100
AcDbEntity
  8
0
100
AcDbBlockBegin
  2
*D20
 70
     1
 10
0.0
 20
0.0
 30
0.0
  3
*D20
  1

  0
LINE
  5
1344
330
1094
100
AcDbEntity
  8
D
 62
     0
370
    -2
100
AcDbLine
 10
217.0237956006614
 20
-1.390165411011395
 30
0.0
 11
216.8540230908292
 21
-1.390165411011395
 31
0.0
  0
MTEXT
  5
1345
330
1094
100
AcDbEntity
  8
D
 62
     0
100
AcDbMText
 10
216.7513564241626
 20
-1.390165411011395
 30
0.0
 40
0.04
 41
0.0
 46
0.0
 71
     5
 72
     1
  1
\A1;0.000
 73
     1
 44
1.0
  0
POINT
  5
1346
330
1094
100
AcDbEntity
  8
Defpoints
 62
     0
100
AcDbPoint
 10
217.0637956006614
 20
-1.390165411011395
 30
0.0
  0
POINT
  5
1347
330
1094
100
AcDbEntity
  8
Defpoints
 62
     0
100
AcDbPoint
 10
216.8540230908292
 20
-1.390165411011395
 30
0.0
  0
POINT
  5
1348
330
1094
100
AcDbEntity
  8
Defpoints
 62
     0
100
AcDbPoint
 10
217.0637956006614
 20
-1.390165411011395
 30
0.0
  0
ENDBLK
  5
109B
330
1094
100
AcDbEntity
  8
0
100
AcDbBlockEnd
  0
BLOCK
  5
10C1
330
10BB
100
AcDbEntity
  8
0
100
AcDbBlockBegin
  2
*D21
 70
     1
 10
0.0
 20
0.0
 30
0.0
  3
*D21
  1

  0
LINE
  5
12C2
330
10BB
100
AcDbEntity
  8
D
 62
     0
370
    -2
100
AcDbLine
 10
217.1842956006615
 20
-1.229665411011402
 30
0.0
 11
217.1842956006615
 21
-1.078789552118507
 31
0.0
  0
MTEXT
  5
12C3
330
10BB
100
AcDbEntity
  8
D
 62
     0
100
AcDbMText
 10
217.1842956006615
 20
-0.9794562187851395
 30
0.0
 40
0.04
 41
0.0
 46
0.0
 71
     5
 72
     1
  1
\A1;0.121
 11
0.0000000000000001
 21
1.0
 31
0.0
 73
     1
 44
1.0
  0
POINT
  5
12C4
330
10BB
100
AcDbEntity
  8
Defpoints
 62
     0
100
AcDbPoint
 10
217.1842956006615
 20
-1.269665411011402
 30
0.0
  0
POINT
  5
12C5
330
10BB
100
AcDbEntity
  8
Defpoints
 62
     0
100
AcDbPoint
 10
217.1842956006615
 20
-1.078789552118507
 30
0.0
  0
POINT
  5
12C6
330
10BB
100
AcDbEntity
  8
Defpoints
 62
     0
100
AcDbPoint
 10
217.0637956006614
 20
-1.390165411011395
 30
0.0
  0
ENDBLK
  5
10C2
330
10BB
100
AcDbEntity
  8
0
100
AcDbBlockEnd
  0
BLOCK
  5
10CA
330
10C4
100
AcDbEntity
  8
0
100
AcDbBlockBegin
  2
*D22
 70
     1
 10
0.0
 20
0.0
 30
0.0
  3
*D22
  1

  0
LINE
  5
133F
330
10C4
100
AcDbEntity
  8
D
 62
     0
370
    -2
100
AcDbLine
 10
217.1842956006615
 20
-1.620665411011395
 30
0.0
 11
217.1842956006615
 21
-1.689134849872118
 31
0.0
  0
MTEXT
  5
1340
330
10C4
100
AcDbEntity
  8
D
 62
     0
100
AcDbMText
 10
217.1842956006615
 20
-1.788468183205417
 30
0.0
 40
0.04
 41
0.0
 46
0.0
 71
     5
 72
     1
  1
\A1;0.121
 11
0.0000000000000001
 21
1.0
 31
0.0
 73
     1
 44
1.0
  0
POINT
  5
1341
330
10C4
100
AcDbEntity
  8
Defpoints
 62
     0
100
AcDbPoint
 10
217.1842956006615
 20
-1.580665411011395
 30
0.0
  0
POINT
  5
1342
330
10C4
100
AcDbEntity
  8
Defpoints
 62
     0
100
AcDbPoint
 10
217.1842956006615
 20
-1.689134849872118
 30
0.0
  0
POINT
  5
1343
330
10C4
100
AcDbEntity
  8
Defpoints
 62
     0
100
AcDbPoint
 10
217.0637956006614
 20
-1.390165411011395
 30
0.0
  0
ENDBLK
  5
10CB
330
10C4
100
AcDbEntity
  8
0
100
AcDbBlockEnd
  0
BLOCK
  5
10D3
330
10CD
100
AcDbEntity
  8
0
100
AcDbBlockBegin
  2
*D23
 70
     1
 10
0.0
 20
0.0
 30
0.0
  3
*D23
  1

  0
LINE
  5
12D8
330
10CD
100
AcDbEntity
  8
D
 62
     0
370
    -2
100
AcDbLine
 10
219.9657956006615
 20
-1.229665411011402
 30
0.0
 11
219.9657956006615
 21
-1.09244546753456
 31
0.0
  0
MTEXT
  5
12D9
330
10CD
100
AcDbEntity
  8
D
 62
     0
100
AcDbMText
 10
219.9657956006615
 20
-0.979778800867858
 30
0.0
 40
0.04
 41
0.0
 46
0.0
 71
     5
 72
     1
  1
\A1;2.902
 11
0.0000000000000001
 21
1.0
 31
0.0
 73
     1
 44
1.0
  0
POINT
  5
12DA
330
10CD
100
AcDbEntity
  8
Defpoints
 62
     0
100
AcDbPoint
 10
219.9657956006615
 20
-1.269665411011402
 30
0.0
  0
POINT
  5
12DB
330
10CD
100
AcDbEntity
  8
Defpoints
 62
     0
100
AcDbPoint
 10
219.9657956006615
 20
-1.09244546753456
 30
0.0
  0
POINT
  5
12DC
330
10CD
100
AcDbEntity
  8
Defpoints
 62
     0
100
AcDbPoint
 10
217.0637956006614
 20
-1.390165411011395
 30
0.0
  0
ENDBLK
  5
10D4
330
10CD
100
AcDbEntity
  8
0
100
AcDbBlockEnd
  0
BLOCK
  5
10DE
330
10D6
100
AcDbEntity
  8
0
100
AcDbBlockBegin
  2
*D24
 70
     1
 10
0.0
 20
0.0
 30
0.0
  3
*D24
  1

  0
LINE
  5
12DD
330
10D6
100
AcDbEntity
  8
D
 62
     0
370
    -2
100
AcDbLine
 10
220.4377956006614
 20
-1.406665411011398
 30
0.0
 11
220.4377956006614
 21
-1.350665411011398
 31
0.0
  0
LINE
  5
12DE
330
10D6
100
AcDbEntity
  8
D
 62
     0
370
    -2
100
AcDbLine
 10
220.4377956006614
 20
-1.350665411011398
 30
0.0
 11
220.3337972051948
 21
-1.272006777705481
 31
0.0
  0
LINE
  5
12DF
330
10D6
100
AcDbEntity
  8
D
 62
     0
370
    -2
100
AcDbLine
 10
220.3337972051948
 20
-1.272006777705481
 30
0.0
 11
220.3337972051948
 21
-1.176006777705481
 31
0.0
  0
MTEXT
  5
12E0
330
10D6
100
AcDbEntity
  8
D
 62
     0
100
AcDbMText
 10
220.3337972051948
 20
-1.060006777705446
 30
0.0
 40
0.04
 41
0.0
 46
0.0
 71
     5
 72
     1
  1
\A1;3.374
 11
0.0000000000000001
 21
1.0
 31
0.0
 73
     1
 44
1.0
  0
POINT
  5
12E1
330
10D6
100
AcDbEntity
  8
Defpoints
 62
     0
100
AcDbPoint
 10
220.4377956006614
 20
-1.446665411011399
 30
0.0
  0
POINT
  5
12E2
330
10D6
100
AcDbEntity
  8
Defpoints
 62
     0
100
AcDbPoint
 10
220.3337972051948
 20
-1.176006777705481
 30
0.0
  0
POINT
  5
12E3
330
10D6
100
AcDbEntity
  8
Defpoints
 62
     0
100
AcDbPoint
 10
217.0637956006614
 20
-1.390165411011395
 30
0.0
  0
ENDBLK
  5
10DF
330
10D6
100
AcDbEntity
  8
0
100
AcDbBlockEnd
  0
BLOCK
  5
10E9
330
10E1
100
AcDbEntity
  8
0
100
AcDbBlockBegin
  2
*D25
 70
     1
 10
0.0
 20
0.0
 30
0.0
  3
*D25
  1

  0
LINE
  5
12E4
330
10E1
100
AcDbEntity
  8
D
 62
     0
370
    -2
100
AcDbLine
 10
220.4813462692261
 20
-1.412392595966223
 30
0.0
 11
220.4813462692261
 21
-1.3447952304572
 31
0.0
  0
LINE
  5
12E5
330
10E1
100
AcDbEntity
  8
D
 62
     0
370
    -2
100
AcDbLine
 10
220.4813462692261
 20
-1.3447952304572
 30
0.0
 11
220.5428748863648
 21
-1.248795230457201
 31
0.0
  0
LINE
  5
12E6
330
10E1
100
AcDbEntity
  8
D
 62
     0
370
    -2
100
AcDbLine
 10
220.5428748863648
 20
-1.248795230457201
 30
0.0
 11
220.5428748863648
 21
-1.152795230457201
 31
0.0
  0
MTEXT
  5
12E7
330
10E1
100
AcDbEntity
  8
D
 62
     0
100
AcDbMText
 10
220.5428748863648
 20
-1.043461897123832
 30
0.0
 40
0.04
 41
0.0
 46
0.0
 71
     5
 72
     1
  1
\A1;3.418
 11
0.0000000000000001
 21
1.0
 31
0.0
 73
     1
 44
1.0
  0
POINT
  5
12E8
330
10E1
100
AcDbEntity
  8
Defpoints
 62
     0
100
AcDbPoint
 10
220.4813462692261
 20
-1.452392595966223
 30
0.0
  0
POINT
  5
12E9
330
10E1
100
AcDbEntity
  8
Defpoints
 62
     0
100
AcDbPoint
 10
220.5428748863648
 20
-1.152795230457201
 30
0.0
  0
POINT
  5
12EA
330
10E1
100
AcDbEntity
  8
Defpoints
 62
     0
100
AcDbPoint
 10
217.0637956006614
 20
-1.390165411011395
 30
0.0
  0
ENDBLK
  5
10EA
330
10E1
100
AcDbEntity
  8
0
100
AcDbBlockEnd
  0
BLOCK
  5
10F4
330
10EC
100
AcDbEntity
  8
0
100
AcDbBlockBegin
  2
*D26
 70
     1
 10
0.0
 20
0.0
 30
0.0
  3
*D26
  1

  0
LINE
  5
1301
330
10EC
100
AcDbEntity
  8
D
 62
     0
370
    -2
100
AcDbLine
 10
220.2153776230694
 20
-1.597379846400252
 30
0.0
 11
220.2153776230694
 21
-1.653379846400252
 31
0.0
  0
LINE
  5
1302
330
10EC
100
AcDbEntity
  8
D
 62
     0
370
    -2
100
AcDbLine
 10
220.2153776230694
 20
-1.653379846400252
 30
0.0
 11
220.3570279555897
 21
-1.711358393591329
 31
0.0
  0
LINE
  5
1303
330
10EC
100
AcDbEntity
  8
D
 62
     0
370
    -2
100
AcDbLine
 10
220.3570279555897
 20
-1.711358393591329
 30
0.0
 11
220.3570279555897
 21
-1.807358393591329
 31
0.0
  0
MTEXT
  5
1304
330
10EC
100
AcDbEntity
  8
D
 62
     0
100
AcDbMText
 10
220.3570279555897
 20
-1.916691726924627
 30
0.0
 40
0.04
 41
0.0
 46
0.0
 71
     5
 72
     1
  1
\A1;3.152
 11
0.0000000000000001
 21
1.0
 31
0.0
 73
     1
 44
1.0
  0
POINT
  5
1305
330
10EC
100
AcDbEntity
  8
Defpoints
 62
     0
100
AcDbPoint
 10
220.2153776230694
 20
-1.557379846400252
 30
0.0
  0
POINT
  5
1306
330
10EC
100
AcDbEntity
  8
Defpoints
 62
     0
100
AcDbPoint
 10
220.3570279555897
 20
-1.807358393591329
 30
0.0
  0
POINT
  5
1307
330
10EC
100
AcDbEntity
  8
Defpoints
 62
     0
100
AcDbPoint
 10
217.0637956006614
 20
-1.390165411011395
 30
0.0
  0
ENDBLK
  5
10F5
330
10EC
100
AcDbEntity
  8
0
100
AcDbBlockEnd
  0
BLOCK
  5
10FF
330
10F7
100
AcDbEntity
  8
0
100
AcDbBlockBegin
  2
*D27
 70
     1
 10
0.0
 20
0.0
 30
0.0
  3
*D27
  1

  0
LINE
  5
1308
330
10F7
100
AcDbEntity
  8
D
 62
     0
370
    -2
100
AcDbLine
 10
220.1286197426998
 20
-1.620665411011398
 30
0.0
 11
220.1286197426998
 21
-1.676665411011398
 31
0.0
  0
LINE
  5
1309
330
10F7
100
AcDbEntity
  8
D
 62
     0
370
    -2
100
AcDbLine
 10
220.1286197426998
 20
-1.676665411011398
 30
0.0
 11
220.0132112727982
 21
-1.697431508562832
 31
0.0
  0
LINE
  5
130A
330
10F7
100
AcDbEntity
  8
D
 62
     0
370
    -2
100
AcDbLine
 10
220.0132112727982
 20
-1.697431508562832
 30
0.0
 11
220.0132112727982
 21
-1.793431508562832
 31
0.0
  0
MTEXT
  5
130B
330
10F7
100
AcDbEntity
  8
D
 62
     0
100
AcDbMText
 10
220.0132112727982
 20
-1.906098175229464
 30
0.0
 40
0.04
 41
0.0
 46
0.0
 71
     5
 72
     1
  1
\A1;3.065
 11
0.0000000000000001
 21
1.0
 31
0.0
 73
     1
 44
1.0
  0
POINT
  5
130C
330
10F7
100
AcDbEntity
  8
Defpoints
 62
     0
100
AcDbPoint
 10
220.1286197426998
 20
-1.580665411011398
 30
0.0
  0
POINT
  5
130D
330
10F7
100
AcDbEntity
  8
Defpoints
 62
     0
100
AcDbPoint
 10
220.0132112727982
 20
-1.793431508562832
 30
0.0
  0
POINT
  5
130E
330
10F7
100
AcDbEntity
  8
Defpoints
 62
     0
100
AcDbPoint
 10
217.0637956006614
 20
-1.390165411011395
 30
0.0
  0
ENDBLK
  5
1100
330
10F7
100
AcDbEntity
  8
0
100
AcDbBlockEnd
  0
BLOCK
  5
1108
330
1102
100
AcDbEntity
  8
0
100
AcDbBlockBegin
  2
*D28
 70
     1
 10
0.0
 20
0.0
 30
0.0
  3
*D28
  1

  0
LINE
  5
1361
330
1102
100
AcDbEntity
  8
D
 62
     0
370
    -2
100
AcDbLine
 10
220.1737909218378
 20
-1.672153473931757
 30
0.0
 11
220.1653203261501
 21
-1.624906791416528
 31
0.0
  0
MTEXT
  5
1362
330
1102
100
AcDbEntity
  8
D
 62
     0
100
AcDbMText
 10
220.1960262355182
 20
-1.796176015534193
 30
0.0
 40
0.04
 41
0.0
 46
0.0
 71
     5
 72
     1
  1
\A1;R0.199
 11
0.1764707434948751
 21
-0.9843058857338839
 31
0.0
 73
     1
 44
1.0
  0
SOLID
  5
1363
330
1102
100
AcDbEntity
  8
D
 62
     0
100
AcDbTrace
 10
220.173194773236
 20
-1.623495025468564
 30
0.0
 11
220.1574458790642
 21
-1.626318557364491
 31
0.0
 12
220.1568497304624
 22
-1.577660108901298
 32
0.0
 13
220.1568497304624
 23
-1.577660108901298
 33
0.0
  0
POINT
  5
1364
330
1102
100
AcDbEntity
  8
Defpoints
 62
     0
100
AcDbPoint
 10
220.1568497304624
 20
-1.577660108901298
 30
0.0
  0
POINT
  5
1365
330
1102
100
AcDbEntity
  8
Defpoints
 62
     0
100
AcDbPoint
 10
220.1217076716804
 20
-1.381647248011226
 30
0.0
  0
ENDBLK
  5
1109
330
1102
100
AcDbEntity
  8
0
100
AcDbBlockEnd
  0
BLOCK
  5
1111
330
110B
100
AcDbEntity
  8
0
100
AcDbBlockBegin
  2
*D29
 70
     1
 10
0.0
 20
0.0
 30
0.0
  3
*D29
  1

  0
LINE
  5
12B8
330
110B
100
AcDbEntity
  8
D
 62
     0
370
    -2
100
AcDbLine
 10
220.2220707755353
 20
-0.9492704857753722
 30
0.0
 11
220.1450725244112
 21
-1.248138708379791
 31
0.0
  0
MTEXT
  5
12B9
330
110B
100
AcDbEntity
  8
D
 62
     0
100
AcDbMText
 10
220.2535060140054
 20
-0.8272548073470531
 30
0.0
 40
0.04
 41
0.0
 46
0.0
 71
     5
 72
     1
  1
\A1;R0.814
 11
0.2494860196039894
 21
0.9683784002249108
 31
0.0
 73
     1
 44
1.0
  0
SOLID
  5
12BA
330
110B
100
AcDbEntity
  8
D
 62
     0
100
AcDbTrace
 10
220.1373254972094
 20
-1.246142820222956
 30
0.0
 11
220.152819551613
 21
-1.250134596536625
 31
0.0
 12
220.1330971954702
 22
-1.294620871590588
 32
0.0
 13
220.1330971954702
 23
-1.294620871590588
 33
0.0
  0
POINT
  5
12BB
330
110B
100
AcDbEntity
  8
Defpoints
 62
     0
100
AcDbPoint
 10
220.1330971954702
 20
-1.294620871590588
 30
0.0
  0
POINT
  5
12BC
330
110B
100
AcDbEntity
  8
Defpoints
 62
     0
100
AcDbPoint
 10
219.9299898472668
 20
-2.082980753396292
 30
0.0
  0
ENDBLK
  5
1112
330
110B
100
AcDbEntity
  8
0
100
AcDbBlockEnd
  0
BLOCK
  5
111C
330
1114
100
AcDbEntity
  8
0
100
AcDbBlockBegin
  2
*D30
 70
     1
 10
0.0
 20
0.0
 30
0.0
  3
*D30
  1

  0
LINE
  5
130F
330
1114
100
AcDbEntity
  8
D
 62
     0
370
    -2
100
AcDbLine
 10
220.3977956006614
 20
-1.446665411011399
 30
0.0
 11
220.3417956006614
 21
-1.446665411011399
 31
0.0
  0
LINE
  5
1310
330
1114
100
AcDbEntity
  8
D
 62
     0
370
    -2
100
AcDbLine
 10
220.3417956006614
 20
-1.446665411011399
 30
0.0
 11
220.2859847280212
 21
-1.403374975211733
 31
0.0
  0
LINE
  5
1311
330
1114
100
AcDbEntity
  8
D
 62
     0
370
    -2
100
AcDbLine
 10
220.2859847280212
 20
-1.403374975211733
 30
0.0
 11
220.1899847280212
 21
-1.403374975211733
 31
0.0
  0
MTEXT
  5
1312
330
1114
100
AcDbEntity
  8
D
 62
     0
100
AcDbMText
 10
220.0806513946879
 20
-1.403374975211733
 30
0.0
 40
0.04
 41
0.0
 46
0.0
 71
     5
 72
     1
  1
\A1;0.057
 73
     1
 44
1.0
  0
POINT
  5
1313
330
1114
100
AcDbEntity
  8
Defpoints
 62
     0
100
AcDbPoint
 10
220.4377956006614
 20
-1.446665411011399
 30
0.0
  0
POINT
  5
1314
330
1114
100
AcDbEntity
  8
Defpoints
 62
     0
100
AcDbPoint
 10
220.1899847280212
 20
-1.403374975211733
 30
0.0
  0
POINT
  5
1315
330
1114
100
AcDbEntity
  8
Defpoints
 62
     0
100
AcDbPoint
 10
217.0637956006614
 20
-1.390165411011395
 30
0.0
  0
ENDBLK
  5
111D
330
1114
100
AcDbEntity
  8
0
100
AcDbBlockEnd
  0
BLOCK
  5
1127
330
111F
100
AcDbEntity
  8
0
100
AcDbBlockBegin
  2
*D31
 70
     1
 10
0.0
 20
0.0
 30
0.0
  3
*D31
  1

  0
LINE
  5
1316
330
111F
100
AcDbEntity
  8
D
 62
     0
370
    -2
100
AcDbLine
 10
220.521346269226
 20
-1.452392595966223
 30
0.0
 11
220.577346269226
 21
-1.452392595966223
 31
0.0
  0
LINE
  5
1317
330
111F
100
AcDbEntity
  8
D
 62
     0
370
    -2
100
AcDbLine
 10
220.577346269226
 20
-1.452392595966223
 30
0.0
 11
220.5935731768025
 21
-1.400255250729003
 31
0.0
  0
LINE
  5
1318
330
111F
100
AcDbEntity
  8
D
 62
     0
370
    -2
100
AcDbLine
 10
220.5935731768025
 20
-1.400255250729003
 30
0.0
 11
220.6895731768025
 21
-1.400255250729003
 31
0.0
  0
MTEXT
  5
1319
330
111F
100
AcDbEntity
  8
D
 62
     0
100
AcDbMText
 10
220.7989065101358
 20
-1.400255250729003
 30
0.0
 40
0.04
 41
0.0
 46
0.0
 71
     5
 72
     1
  1
\A1;0.062
 73
     1
 44
1.0
  0
POINT
  5
131A
330
111F
100
AcDbEntity
  8
Defpoints
 62
     0
100
AcDbPoint
 10
220.4813462692261
 20
-1.452392595966223
 30
0.0
  0
POINT
  5
131B
330
111F
100
AcDbEntity
  8
Defpoints
 62
     0
100
AcDbPoint
 10
220.6895731768025
 20
-1.400255250729003
 30
0.0
  0
POINT
  5
131C
330
111F
100
AcDbEntity
  8
Defpoints
 62
     0
100
AcDbPoint
 10
217.0637956006614
 20
-1.390165411011395
 30
0.0
  0
ENDBLK
  5
1128
330
111F
100
AcDbEntity
  8
0
100
AcDbBlockEnd
  0
BLOCK
  5
1132
330
112A
100
AcDbEntity
  8
0
100
AcDbBlockBegin
  2
*D32
 70
     1
 10
0.0
 20
0.0
 30
0.0
  3
*D32
  1

  0
LINE
  5
12EB
330
112A
100
AcDbEntity
  8
D
 62
     0
370
    -2
100
AcDbLine
 10
221.5940038351671
 20
-1.448418621408101
 30
0.0
 11
221.5940038351671
 21
-1.392418621408101
 31
0.0
  0
LINE
  5
12EC
330
112A
100
AcDbEntity
  8
D
 62
     0
370
    -2
100
AcDbLine
 10
221.5940038351671
 20
-1.392418621408101
 30
0.0
 11
221.5115197682797
 21
-1.330978299505883
 31
0.0
  0
LINE
  5
12ED
330
112A
100
AcDbEntity
  8
D
 62
     0
370
    -2
100
AcDbLine
 10
221.5115197682797
 20
-1.330978299505883
 30
0.0
 11
221.5115197682797
 21
-1.234978299505883
 31
0.0
  0
MTEXT
  5
12EE
330
112A
100
AcDbEntity
  8
D
 62
     0
100
AcDbMText
 10
221.5115197682797
 20
-1.12231163283918
 30
0.0
 40
0.04
 41
0.0
 46
0.0
 71
     5
 72
     1
  1
\A1;4.530
 11
0.0000000000000001
 21
1.0
 31
0.0
 73
     1
 44
1.0
  0
POINT
  5
12EF
330
112A
100
AcDbEntity
  8
Defpoints
 62
     0
100
AcDbPoint
 10
221.5940038351671
 20
-1.488418621408101
 30
0.0
  0
POINT
  5
12F0
330
112A
100
AcDbEntity
  8
Defpoints
 62
     0
100
AcDbPoint
 10
221.5115197682797
 20
-1.234978299505883
 30
0.0
  0
POINT
  5
12F1
330
112A
100
AcDbEntity
  8
Defpoints
 62
     0
100
AcDbPoint
 10
217.0637956006614
 20
-1.390165411011395
 30
0.0
  0
ENDBLK
  5
1133
330
112A
100
AcDbEntity
  8
0
100
AcDbBlockEnd
  0
BLOCK
  5
113B
330
1135
100
AcDbEntity
  8
0
100
AcDbBlockBegin
  2
*D33
 70
     1
 10
0.0
 20
0.0
 30
0.0
  3
*D33
  1

  0
LINE
  5
12D1
330
1135
100
AcDbEntity
  8
D
 62
     0
370
    -2
100
AcDbLine
 10
221.7247964645385
 20
-1.316418617465166
 30
0.0
 11
221.7247964645385
 21
-1.260418617465166
 31
0.0
  0
LINE
  5
12D2
330
1135
100
AcDbEntity
  8
D
 62
     0
370
    -2
100
AcDbLine
 10
221.7247964645385
 20
-1.260418617465166
 30
0.0
 11
221.6458204713581
 21
-1.240503690278185
 31
0.0
  0
LINE
  5
12D3
330
1135
100
AcDbEntity
  8
D
 62
     0
370
    -2
100
AcDbLine
 10
221.6458204713581
 20
-1.240503690278185
 30
0.0
 11
221.6458204713581
 21
-1.144503690278185
 31
0.0
  0
MTEXT
  5
12D4
330
1135
100
AcDbEntity
  8
D
 62
     0
100
AcDbMText
 10
221.6458204713581
 20
-1.035170356944816
 30
0.0
 40
0.04
 41
0.0
 46
0.0
 71
     5
 72
     1
  1
\A1;4.661
 11
0.0000000000000001
 21
1.0
 31
0.0
 73
     1
 44
1.0
  0
POINT
  5
12D5
330
1135
100
AcDbEntity
  8
Defpoints
 62
     0
100
AcDbPoint
 10
221.7247964645385
 20
-1.356418617465166
 30
0.0
  0
POINT
  5
12D6
330
1135
100
AcDbEntity
  8
Defpoints
 62
     0
100
AcDbPoint
 10
221.6458204713581
 20
-1.144503690278185
 30
0.0
  0
POINT
  5
12D7
330
1135
100
AcDbEntity
  8
Defpoints
 62
     0
100
AcDbPoint
 10
217.0637956006614
 20
-1.390165411011395
 30
0.0
  0
ENDBLK
  5
113C
330
1135
100
AcDbEntity
  8
0
100
AcDbBlockEnd
  0
BLOCK
  5
1144
330
113E
100
AcDbEntity
  8
0
100
AcDbBlockBegin
  2
*D34
 70
     1
 10
0.0
 20
0.0
 30
0.0
  3
*D34
  1

  0
LINE
  5
12F2
330
113E
100
AcDbEntity
  8
D
 62
     0
370
    -2
100
AcDbLine
 10
221.7938063619768
 20
-1.316418626855145
 30
0.0
 11
221.7938063619768
 21
-1.147623414760886
 31
0.0
  0
MTEXT
  5
12F3
330
113E
100
AcDbEntity
  8
D
 62
     0
100
AcDbMText
 10
221.7938063619768
 20
-1.034956748094183
 30
0.0
 40
0.04
 41
0.0
 46
0.0
 71
     5
 72
     1
  1
\A1;4.730
 11
0.0000000000000001
 21
1.0
 31
0.0
 73
     1
 44
1.0
  0
POINT
  5
12F4
330
113E
100
AcDbEntity
  8
Defpoints
 62
     0
100
AcDbPoint
 10
221.7938063619768
 20
-1.356418626855145
 30
0.0
  0
POINT
  5
12F5
330
113E
100
AcDbEntity
  8
Defpoints
 62
     0
100
AcDbPoint
 10
221.7938063619768
 20
-1.147623414760886
 30
0.0
  0
POINT
  5
12F6
330
113E
100
AcDbEntity
  8
Defpoints
 62
     0
100
AcDbPoint
 10
217.0637956006614
 20
-1.390165411011395
 30
0.0
  0
ENDBLK
  5
1145
330
113E
100
AcDbEntity
  8
0
100
AcDbBlockEnd
  0
BLOCK
  5
114D
330
1147
100
AcDbEntity
  8
0
100
AcDbBlockBegin
  2
*D35
 70
     1
 10
0.0
 20
0.0
 30
0.0
  3
*D35
  1

  0
LINE
  5
1375
330
1147
100
AcDbEntity
  8
D
 62
     0
370
    -2
100
AcDbLine
 10
221.8338063619768
 20
-1.356418626855145
 30
0.0
 11
221.9892508021008
 21
-1.356418626855145
 31
0.0
  0
MTEXT
  5
1376
330
1147
100
AcDbEntity
  8
D
 62
     0
100
AcDbMText
 10
222.2452508021008
 20
-1.356418626855145
 30
0.0
 40
0.04
 41
0.0
 46
0.0
 71
     5
 72
     1
  1
\A1;0.034 TYP (2)
 73
     1
 44
1.0
  0
POINT
  5
1377
330
1147
100
AcDbEntity
  8
Defpoints
 62
     0
100
AcDbPoint
 10
221.7938063619768
 20
-1.356418626855145
 30
0.0
  0
POINT
  5
1378
330
1147
100
AcDbEntity
  8
Defpoints
 62
     0
100
AcDbPoint
 10
221.9892508021008
 20
-1.356418626855145
 30
0.0
  0
POINT
  5
1379
330
1147
100
AcDbEntity
  8
Defpoints
 62
     0
100
AcDbPoint
 10
217.0637956006614
 20
-1.390165411011395
 30
0.0
  0
ENDBLK
  5
114E
330
1147
100
AcDbEntity
  8
0
100
AcDbBlockEnd
  0
BLOCK
  5
1156
330
1150
100
AcDbEntity
  8
0
100
AcDbBlockBegin
  2
*D36
 70
     1
 10
0.0
 20
0.0
 30
0.0
  3
*D36
  1

  0
LINE
  5
1322
330
1150
100
AcDbEntity
  8
D
 62
     0
370
    -2
100
AcDbLine
 10
221.5926161045611
 20
-1.597379846400251
 30
0.0
 11
221.5926161045611
 21
-1.727909713341489
 31
0.0
  0
MTEXT
  5
1323
330
1150
100
AcDbEntity
  8
D
 62
     0
100
AcDbMText
 10
221.5926161045611
 20
-1.843909713341453
 30
0.0
 40
0.04
 41
0.0
 46
0.0
 71
     5
 72
     1
  1
\A1;4.529
 11
0.0000000000000001
 21
1.0
 31
0.0
 73
     1
 44
1.0
  0
POINT
  5
1324
330
1150
100
AcDbEntity
  8
Defpoints
 62
     0
100
AcDbPoint
 10
221.5926161045611
 20
-1.557379846400251
 30
0.0
  0
POINT
  5
1325
330
1150
100
AcDbEntity
  8
Defpoints
 62
     0
100
AcDbPoint
 10
221.5926161045611
 20
-1.727909713341489
 30
0.0
  0
POINT
  5
1326
330
1150
100
AcDbEntity
  8
Defpoints
 62
     0
100
AcDbPoint
 10
217.0637956006614
 20
-1.390165411011395
 30
0.0
  0
ENDBLK
  5
1157
330
1150
100
AcDbEntity
  8
0
100
AcDbBlockEnd
  0
BLOCK
  5
115F
330
1159
100
AcDbEntity
  8
0
100
AcDbBlockBegin
  2
*D37
 70
     1
 10
0.0
 20
0.0
 30
0.0
  3
*D37
  1

  0
LINE
  5
1327
330
1159
100
AcDbEntity
  8
D
 62
     0
370
    -2
100
AcDbLine
 10
221.6326161045611
 20
-1.557379846400251
 30
0.0
 11
221.8799660463398
 21
-1.557379846400251
 31
0.0
  0
MTEXT
  5
1328
330
1159
100
AcDbEntity
  8
D
 62
     0
100
AcDbMText
 10
221.9859660463398
 20
-1.557379846400251
 30
0.0
 40
0.04
 41
0.0
 46
0.0
 71
     5
 72
     1
  1
\A1;0.167
 73
     1
 44
1.0
  0
POINT
  5
1329
330
1159
100
AcDbEntity
  8
Defpoints
 62
     0
100
AcDbPoint
 10
221.5926161045611
 20
-1.557379846400251
 30
0.0
  0
POINT
  5
132A
330
1159
100
AcDbEntity
  8
Defpoints
 62
     0
100
AcDbPoint
 10
221.8799660463398
 20
-1.557379846400251
 30
0.0
  0
POINT
  5
132B
330
1159
100
AcDbEntity
  8
Defpoints
 62
     0
100
AcDbPoint
 10
217.0637956006614
 20
-1.390165411011395
 30
0.0
  0
ENDBLK
  5
1160
330
1159
100
AcDbEntity
  8
0
100
AcDbBlockEnd
  0
BLOCK
  5
116A
330
1162
100
AcDbEntity
  8
0
100
AcDbBlockBegin
  2
*D38
 70
     1
 10
0.0
 20
0.0
 30
0.0
  3
*D38
  1

  0
LINE
  5
132C
330
1162
100
AcDbEntity
  8
D
 62
     0
370
    -2
100
AcDbLine
 10
220.2553776230694
 20
-1.557379846400252
 30
0.0
 11
220.3113776230694
 21
-1.557379846400252
 31
0.0
  0
LINE
  5
132D
330
1162
100
AcDbEntity
  8
D
 62
     0
370
    -2
100
AcDbLine
 10
220.3113776230694
 20
-1.557379846400252
 30
0.0
 11
220.4001197951224
 21
-1.633908383706369
 31
0.0
  0
LINE
  5
132E
330
1162
100
AcDbEntity
  8
D
 62
     0
370
    -2
100
AcDbLine
 10
220.4001197951224
 20
-1.633908383706369
 30
0.0
 11
220.4961197951224
 21
-1.633908383706369
 31
0.0
  0
MTEXT
  5
132F
330
1162
100
AcDbEntity
  8
D
 62
     0
100
AcDbMText
 10
220.6021197951224
 20
-1.633908383706369
 30
0.0
 40
0.04
 41
0.0
 46
0.0
 71
     5
 72
     1
  1
\A1;0.167
 73
     1
 44
1.0
  0
POINT
  5
1330
330
1162
100
AcDbEntity
  8
Defpoints
 62
     0
100
AcDbPoint
 10
220.2153776230694
 20
-1.557379846400252
 30
0.0
  0
POINT
  5
1331
330
1162
100
AcDbEntity
  8
Defpoints
 62
     0
100
AcDbPoint
 10
220.4961197951224
 20
-1.633908383706369
 30
0.0
  0
POINT
  5
1332
330
1162
100
AcDbEntity
  8
Defpoints
 62
     0
100
AcDbPoint
 10
217.0637956006614
 20
-1.390165411011395
 30
0.0
  0
ENDBLK
  5
116B
330
1162
100
AcDbEntity
  8
0
100
AcDbBlockEnd
  0
BLOCK
  5
1175
330
116D
100
AcDbEntity
  8
0
100
AcDbBlockBegin
  2
*D39
 70
     1
 10
0.0
 20
0.0
 30
0.0
  3
*D39
  1

  0
LINE
  5
1333
330
116D
100
AcDbEntity
  8
D
 62
     0
370
    -2
100
AcDbLine
 10
220.0886197426998
 20
-1.580665411011398
 30
0.0
 11
220.0326197426998
 21
-1.580665411011398
 31
0.0
  0
LINE
  5
1334
330
116D
100
AcDbEntity
  8
D
 62
     0
370
    -2
100
AcDbLine
 10
220.0326197426998
 20
-1.580665411011398
 30
0.0
 11
219.9995531516118
 21
-1.512094655074236
 31
0.0
  0
LINE
  5
1335
330
116D
100
AcDbEntity
  8
D
 62
     0
370
    -2
100
AcDbLine
 10
219.9995531516118
 20
-1.512094655074236
 30
0.0
 11
219.9035531516118
 21
-1.512094655074236
 31
0.0
  0
MTEXT
  5
1336
330
116D
100
AcDbEntity
  8
D
 62
     0
100
AcDbMText
 10
219.8042198182784
 20
-1.512094655074236
 30
0.0
 40
0.04
 41
0.0
 46
0.0
 71
     5
 72
     1
  1
\A1;0.191
 73
     1
 44
1.0
  0
POINT
  5
1337
330
116D
100
AcDbEntity
  8
Defpoints
 62
     0
100
AcDbPoint
 10
220.1286197426998
 20
-1.580665411011398
 30
0.0
  0
POINT
  5
1338
330
116D
100
AcDbEntity
  8
Defpoints
 62
     0
100
AcDbPoint
 10
219.9035531516118
 20
-1.512094655074236
 30
0.0
  0
POINT
  5
1339
330
116D
100
AcDbEntity
  8
Defpoints
 62
     0
100
AcDbPoint
 10
217.0637956006614
 20
-1.390165411011395
 30
0.0
  0
ENDBLK
  5
1176
330
116D
100
AcDbEntity
  8
0
100
AcDbBlockEnd
  0
BLOCK
  5
1180
330
1178
100
AcDbEntity
  8
0
100
AcDbBlockBegin
  2
*D40
 70
     1
 10
0.0
 20
0.0
 30
0.0
  3
*D40
  1

  0
LINE
  5
1349
330
1178
100
AcDbEntity
  8
D
 62
     0
370
    -2
100
AcDbLine
 10
217.1442956006615
 20
-1.580665411011395
 30
0.0
 11
217.0464855073873
 21
-1.580665411011395
 31
0.0
  0
LINE
  5
134A
330
1178
100
AcDbEntity
  8
D
 62
     0
370
    -2
100
AcDbLine
 10
217.0464855073873
 20
-1.580665411011395
 30
0.0
 11
216.9504855073873
 21
-1.653965116881835
 31
0.0
  0
LINE
  5
134B
330
1178
100
AcDbEntity
  8
D
 62
     0
370
    -2
100
AcDbLine
 10
216.9504855073873
 20
-1.653965116881835
 30
0.0
 11
216.8544855073873
 21
-1.653965116881835
 31
0.0
  0
MTEXT
  5
134C
330
1178
100
AcDbEntity
  8
D
 62
     0
100
AcDbMText
 10
216.755152174054
 20
-1.653965116881835
 30
0.0
 40
0.04
 41
0.0
 46
0.0
 71
     5
 72
     1
  1
\A1;0.191
 73
     1
 44
1.0
  0
POINT
  5
134D
330
1178
100
AcDbEntity
  8
Defpoints
 62
     0
100
AcDbPoint
 10
217.1842956006615
 20
-1.580665411011395
 30
0.0
  0
POINT
  5
134E
330
1178
100
AcDbEntity
  8
Defpoints
 62
     0
100
AcDbPoint
 10
216.8544855073873
 20
-1.653965116881835
 30
0.0
  0
POINT
  5
134F
330
1178
100
AcDbEntity
  8
Defpoints
 62
     0
100
AcDbPoint
 10
217.0637956006614
 20
-1.390165411011395
 30
0.0
  0
ENDBLK
  5
1181
330
1178
100
AcDbEntity
  8
0
100
AcDbBlockEnd
  0
BLOCK
  5
118B
330
1183
100
AcDbEntity
  8
0
100
AcDbBlockBegin
  2
*D41
 70
     1
 10
0.0
 20
0.0
 30
0.0
  3
*D41
  1

  0
LINE
  5
1350
330
1183
100
AcDbEntity
  8
D
 62
     0
370
    -2
100
AcDbLine
 10
217.1442956006615
 20
-1.269665411011402
 30
0.0
 11
217.0597337602198
 21
-1.269665411011402
 31
0.0
  0
LINE
  5
1351
330
1183
100
AcDbEntity
  8
D
 62
     0
370
    -2
100
AcDbLine
 10
217.0597337602198
 20
-1.269665411011402
 30
0.0
 11
216.9637337602198
 21
-1.132228398610834
 31
0.0
  0
LINE
  5
1352
330
1183
100
AcDbEntity
  8
D
 62
     0
370
    -2
100
AcDbLine
 10
216.9637337602198
 20
-1.132228398610834
 30
0.0
 11
216.8677337602198
 21
-1.132228398610834
 31
0.0
  0
MTEXT
  5
1353
330
1183
100
AcDbEntity
  8
D
 62
     0
100
AcDbMText
 10
216.7684004268864
 20
-1.132228398610834
 30
0.0
 40
0.04
 41
0.0
 46
0.0
 71
     5
 72
     1
  1
\A1;0.121
 73
     1
 44
1.0
  0
POINT
  5
1354
330
1183
100
AcDbEntity
  8
Defpoints
 62
     0
100
AcDbPoint
 10
217.1842956006615
 20
-1.269665411011402
 30
0.0
  0
POINT
  5
1355
330
1183
100
AcDbEntity
  8
Defpoints
 62
     0
100
AcDbPoint
 10
216.8677337602198
 20
-1.132228398610834
 30
0.0
  0
POINT
  5
1356
330
1183
100
AcDbEntity
  8
Defpoints
 62
     0
100
AcDbPoint
 10
217.0637956006614
 20
-1.390165411011395
 30
0.0
  0
ENDBLK
  5
118C
330
1183
100
AcDbEntity
  8
0
100
AcDbBlockEnd
  0
BLOCK
  5
11AE
330
11A3
100
AcDbEntity
  8
0
100
AcDbBlockBegin
  2
*D42
 70
     1
 10
0.0
 20
0.0
 30
0.0
  3
*D42
  1

  0
LINE
  5
139F
330
11A3
100
AcDbEntity
  8
D
 62
     0
370
    -2
100
AcDbLine
 10
215.9664550908254
 20
-1.229665411011402
 30
0.0
 11
215.9664550908254
 21
-1.025153340859391
 31
0.0
  0
LINE
  5
13A0
330
11A3
100
AcDbEntity
  8
D
 62
     0
370
    -2
100
AcDbLine
 10
215.9464550908254
 20
-1.229665411011402
 30
0.0
 11
215.9464550908254
 21
-1.025153340859391
 31
0.0
  0
LINE
  5
13A1
330
11A3
100
AcDbEntity
  8
D
 62
     0
370
    -2
100
AcDbLine
 10
216.0144550908254
 20
-1.073153340859391
 30
0.0
 11
216.0624550908254
 21
-1.073153340859391
 31
0.0
  0
LINE
  5
13A2
330
11A3
100
AcDbEntity
  8
D
 62
     0
370
    -2
100
AcDbLine
 10
215.8984550908254
 20
-1.073153340859391
 30
0.0
 11
215.8504550908254
 21
-1.073153340859391
 31
0.0
  0
SOLID
  5
13A3
330
11A3
100
AcDbEntity
  8
D
 62
     0
100
AcDbTrace
 10
216.0144550908254
 20
-1.065153340859391
 30
0.0
 11
216.0144550908254
 21
-1.081153340859391
 31
0.0
 12
215.9664550908254
 22
-1.073153340859391
 32
0.0
 13
215.9664550908254
 23
-1.073153340859391
 33
0.0
  0
SOLID
  5
13A4
330
11A3
100
AcDbEntity
  8
D
 62
     0
100
AcDbTrace
 10
215.8984550908254
 20
-1.065153340859391
 30
0.0
 11
215.8984550908254
 21
-1.081153340859391
 31
0.0
 12
215.9464550908254
 22
-1.073153340859391
 32
0.0
 13
215.9464550908254
 23
-1.073153340859391
 33
0.0
  0
MTEXT
  5
13A5
330
11A3
100
AcDbEntity
  8
D
 62
     0
100
AcDbMText
 10
215.6644550908254
 20
-1.073153340859391
 30
0.0
 40
0.04
 41
0.0
 46
0.0
 71
     5
 72
     1
  1
\A1;0.020 REF
 73
     1
 44
1.0
  0
POINT
  5
13A6
330
11A3
100
AcDbEntity
  8
Defpoints
 62
     0
100
AcDbPoint
 10
215.9664550908254
 20
-1.269665411011402
 30
0.0
  0
POINT
  5
13A7
330
11A3
100
AcDbEntity
  8
Defpoints
 62
     0
100
AcDbPoint
 10
215.9464550908254
 20
-1.269665411011402
 30
0.0
  0
POINT
  5
13A8
330
11A3
100
AcDbEntity
  8
Defpoints
 62
     0
100
AcDbPoint
 10
215.9464550908254
 20
-1.073153340859391
 30
0.0
  0
ENDBLK
  5
11AF
330
11A3
100
AcDbEntity
  8
0
100
AcDbBlockEnd
  0
BLOCK
  5
1249
330
1243
100
AcDbEntity
  8
0
100
AcDbBlockBegin
  2
*D43
 70
     1
 10
0.0
 20
0.0
 30
0.0
  3
*D43
  1

  0
LINE
  5
12BD
330
1243
100
AcDbEntity
  8
D
 62
     0
370
    -2
100
AcDbLine
 10
216.9996005542535
 20
-1.030182574816464
 30
0.0
 11
217.1073770765645
 21
-1.240246130561033
 31
0.0
  0
MTEXT
  5
12BE
330
1243
100
AcDbEntity
  8
D
 62
     0
100
AcDbMText
 10
216.9451261098883
 20
-0.9240082871778838
 30
0.0
 40
0.04
 41
0.0
 46
0.0
 71
     5
 72
     1
  1
\A1;R0.121
 11
0.4564897572494601
 21
-0.8897286673623195
 31
0.0
 73
     1
 44
1.0
  0
SOLID
  5
12BF
330
1243
100
AcDbEntity
  8
D
 62
     0
100
AcDbTrace
 10
217.1144949059034
 20
-1.236594212503035
 30
0.0
 11
217.1002592472256
 21
-1.24389804861903
 31
0.0
 12
217.1292885849125
 22
-1.282953106594419
 32
0.0
 13
217.1292885849125
 23
-1.282953106594419
 33
0.0
  0
POINT
  5
12C0
330
1243
100
AcDbEntity
  8
Defpoints
 62
     0
100
AcDbPoint
 10
217.1292885849125
 20
-1.282953106594419
 30
0.0
  0
POINT
  5
12C1
330
1243
100
AcDbEntity
  8
Defpoints
 62
     0
100
AcDbPoint
 10
217.184295600661
 20
-1.390165411011381
 30
0.0
  0
ENDBLK
  5
124A
330
1243
100
AcDbEntity
  8
0
100
AcDbBlockEnd
  0
BLOCK
  5
1252
330
124C
100
AcDbEntity
  8
0
100
AcDbBlockBegin
  2
*D44
 70
     1
 10
0.0
 20
0.0
 30
0.0
  3
*D44
  1

  0
LINE
  5
133A
330
124C
100
AcDbEntity
  8
D
 62
     0
370
    -2
100
AcDbLine
 10
217.0009266396631
 20
-1.693199982826612
 30
0.0
 11
217.0800977040098
 21
-1.592585380552918
 31
0.0
  0
MTEXT
  5
133B
330
124C
100
AcDbEntity
  8
D
 62
     0
100
AcDbMText
 10
216.9271326792255
 20
-1.786981088852087
 30
0.0
 40
0.04
 41
0.0
 46
0.0
 71
     5
 72
     1
  1
\A1;R0.121
 11
0.6183851433328073
 21
0.7858751901576124
 31
0.0
 73
     1
 44
1.0
  0
SOLID
  5
133C
330
124C
100
AcDbEntity
  8
D
 62
     0
100
AcDbTrace
 10
217.0738107024885
 20
-1.587638299406251
 30
0.0
 11
217.086384705531
 21
-1.597532461699586
 31
0.0
 12
217.1097801908898
 22
-1.554863371425355
 32
0.0
 13
217.1097801908898
 23
-1.554863371425355
 33
0.0
  0
POINT
  5
133D
330
124C
100
AcDbEntity
  8
Defpoints
 62
     0
100
AcDbPoint
 10
217.1097801908898
 20
-1.554863371425355
 30
0.0
  0
POINT
  5
133E
330
124C
100
AcDbEntity
  8
Defpoints
 62
     0
100
AcDbPoint
 10
217.1842956006612
 20
-1.460165411011416
 30
0.0
  0
ENDBLK
  5
1253
330
124C
100
AcDbEntity
  8
0
100
AcDbBlockEnd
  0
BLOCK
  5
125B
330
1255
100
AcDbEntity
  8
0
100
AcDbBlockBegin
  2
*D45
 70
     1
 10
0.0
 20
0.0
 30
0.0
  3
*D45
  1

  0
LINE
  5
1357
330
1255
100
AcDbEntity
  8
D
 62
     0
370
    -2
100
AcDbLine
 10
222.0238975992788
 20
-1.468185204531678
 30
0.0
 11
221.8338320287699
 21
-1.418890894904905
 31
0.0
  0
MTEXT
  5
1358
330
1255
100
AcDbEntity
  8
D
 62
     0
100
AcDbMText
 10
222.1426358122151
 20
-1.498980462280549
 30
0.0
 40
0.04
 41
0.0
 46
0.0
 71
     5
 72
     1
  1
\A1;R0.201
 11
0.9679745619802092
 21
-0.2510482968658065
 31
0.0
 73
     1
 44
1.0
  0
SOLID
  5
1359
330
1255
100
AcDbEntity
  8
D
 62
     0
100
AcDbTrace
 10
221.8358404151449
 20
-1.41114709840906
 30
0.0
 11
221.831823642395
 21
-1.426634691400749
 31
0.0
 12
221.7873692497948
 22
-1.406840576655348
 32
0.0
 13
221.7873692497948
 23
-1.406840576655348
 33
0.0
  0
POINT
  5
135A
330
1255
100
AcDbEntity
  8
Defpoints
 62
     0
100
AcDbPoint
 10
221.7873692497948
 20
-1.406840576655348
 30
0.0
  0
POINT
  5
135B
330
1255
100
AcDbEntity
  8
Defpoints
 62
     0
100
AcDbPoint
 10
221.5928062757551
 20
-1.356379846400287
 30
0.0
  0
ENDBLK
  5
125C
330
1255
100
AcDbEntity
  8
0
100
AcDbBlockEnd
  0
BLOCK
  5
1264
330
125E
100
AcDbEntity
  8
0
100
AcDbBlockBegin
  2
*D46
 70
     1
 10
0.0
 20
0.0
 30
0.0
  3
*D46
  1

  0
LINE
  5
135C
330
125E
100
AcDbEntity
  8
D
 62
     0
370
    -2
100
AcDbLine
 10
221.4616918596203
 20
-1.305680946264914
 30
0.0
 11
221.671136343769
 21
-1.386696077676262
 31
0.0
  0
MTEXT
  5
135D
330
125E
100
AcDbEntity
  8
D
 62
     0
100
AcDbMText
 10
221.3441769207548
 20
-1.260225042980167
 30
0.0
 40
0.04
 41
0.0
 46
0.0
 71
     5
 72
     1
  1
\A1;R0.132
 11
0.9326582449644741
 21
-0.3607611371805269
 31
0.0
 73
     1
 44
1.0
  0
SOLID
  5
135E
330
125E
100
AcDbEntity
  8
D
 62
     0
100
AcDbTrace
 10
221.6740224328665
 20
-1.379234811716557
 30
0.0
 11
221.6682502546716
 21
-1.394157343635981
 31
0.0
 12
221.7159039395273
 22
-1.404012612260927
 32
0.0
 13
221.7159039395273
 23
-1.404012612260927
 33
0.0
  0
POINT
  5
135F
330
125E
100
AcDbEntity
  8
Defpoints
 62
     0
100
AcDbPoint
 10
221.7159039395273
 20
-1.404012612260927
 30
0.0
  0
POINT
  5
1360
330
125E
100
AcDbEntity
  8
Defpoints
 62
     0
100
AcDbPoint
 10
221.5927456723538
 20
-1.356373815564936
 30
0.0
  0
ENDBLK
  5
1265
330
125E
100
AcDbEntity
  8
0
100
AcDbBlockEnd
  0
BLOCK
  5
1272
330
1267
100
AcDbEntity
  8
0
100
AcDbBlockBegin
  2
*D47
 70
     1
 10
0.0
 20
0.0
 30
0.0
  3
*D47
  1

  0
LINE
  5
1366
330
1267
100
AcDbEntity
  8
D
 62
     0
370
    -2
100
AcDbLine
 10
218.558449980763
 20
-1.269665411011402
 30
0.0
 11
218.6020574471578
 21
-1.269665411011402
 31
0.0
  0
LINE
  5
1367
330
1267
100
AcDbEntity
  8
D
 62
     0
370
    -2
100
AcDbLine
 10
218.558449980763
 20
-1.580665411011395
 30
0.0
 11
218.6020574471578
 21
-1.580665411011395
 31
0.0
  0
LINE
  5
1368
330
1267
100
AcDbEntity
  8
D
 62
     0
370
    -2
100
AcDbLine
 10
218.5540574471578
 20
-1.317665411011402
 30
0.0
 11
218.5540574471578
 21
-1.532665411011395
 31
0.0
  0
LINE
  5
1369
330
1267
100
AcDbEntity
  8
D
 62
     0
370
    -2
100
AcDbLine
 10
218.5540574471578
 20
-1.580665411011395
 30
0.0
 11
218.5540574471578
 21
-1.628665411011395
 31
0.0
  0
SOLID
  5
136A
330
1267
100
AcDbEntity
  8
D
 62
     0
100
AcDbTrace
 10
218.5460574471578
 20
-1.317665411011402
 30
0.0
 11
218.5620574471578
 21
-1.317665411011402
 31
0.0
 12
218.5540574471578
 22
-1.269665411011402
 32
0.0
 13
218.5540574471578
 23
-1.269665411011402
 33
0.0
  0
SOLID
  5
136B
330
1267
100
AcDbEntity
  8
D
 62
     0
100
AcDbTrace
 10
218.5460574471578
 20
-1.532665411011395
 30
0.0
 11
218.5620574471578
 21
-1.532665411011395
 31
0.0
 12
218.5540574471578
 22
-1.580665411011395
 32
0.0
 13
218.5540574471578
 23
-1.580665411011395
 33
0.0
  0
MTEXT
  5
136C
330
1267
100
AcDbEntity
  8
D
 62
     0
100
AcDbMText
 10
218.5540574471578
 20
-1.807998744344693
 30
0.0
 40
0.04
 41
0.0
 46
0.0
 71
     5
 72
     1
  1
\A1;0.311 REF
 11
0.0000000000000001
 21
1.0
 31
0.0
 73
     1
 44
1.0
  0
POINT
  5
136D
330
1267
100
AcDbEntity
  8
Defpoints
 62
     0
100
AcDbPoint
 10
218.518449980763
 20
-1.269665411011402
 30
0.0
  0
POINT
  5
136E
330
1267
100
AcDbEntity
  8
Defpoints
 62
     0
100
AcDbPoint
 10
218.518449980763
 20
-1.580665411011395
 30
0.0
  0
POINT
  5
136F
330
1267
100
AcDbEntity
  8
Defpoints
 62
     0
100
AcDbPoint
 10
218.5540574471578
 20
-1.580665411011395
 30
0.0
  0
ENDBLK
  5
1273
330
1267
100
AcDbEntity
  8
0
100
AcDbBlockEnd
  0
BLOCK
  5
129B
330
1290
100
AcDbEntity
  8
0
100
AcDbBlockBegin
  2
*D48
 70
     1
 10
0.0
 20
0.0
 30
0.0
  3
*D48
  1

  0
LINE
  5
12F7
330
1290
100
AcDbEntity
  8
D
 62
     0
370
    -2
100
AcDbLine
 10
221.7938063619768
 20
-1.396418626855145
 30
0.0
 11
221.7938063619768
 21
-2.178172442191764
 31
0.0
  0
LINE
  5
12F8
330
1290
100
AcDbEntity
  8
D
 62
     0
370
    -2
100
AcDbLine
 10
217.0637956006614
 20
-1.500165411011399
 30
0.0
 11
217.0637956006614
 21
-2.178172442191764
 31
0.0
  0
LINE
  5
12F9
330
1290
100
AcDbEntity
  8
D
 62
     0
370
    -2
100
AcDbLine
 10
221.7458063619768
 20
-2.130172442191764
 30
0.0
 11
219.6214676479858
 21
-2.130172442191764
 31
0.0
  0
LINE
  5
12FA
330
1290
100
AcDbEntity
  8
D
 62
     0
370
    -2
100
AcDbLine
 10
217.1117956006614
 20
-2.130172442191764
 30
0.0
 11
219.2361343146524
 21
-2.130172442191764
 31
0.0
  0
SOLID
  5
12FB
330
1290
100
AcDbEntity
  8
D
 62
     0
100
AcDbTrace
 10
221.7458063619768
 20
-2.122172442191764
 30
0.0
 11
221.7458063619768
 21
-2.138172442191764
 31
0.0
 12
221.7938063619768
 22
-2.130172442191764
 32
0.0
 13
221.7938063619768
 23
-2.130172442191764
 33
0.0
  0
SOLID
  5
12FC
330
1290
100
AcDbEntity
  8
D
 62
     0
100
AcDbTrace
 10
217.1117956006614
 20
-2.122172442191764
 30
0.0
 11
217.1117956006614
 21
-2.138172442191764
 31
0.0
 12
217.0637956006614
 22
-2.130172442191764
 32
0.0
 13
217.0637956006614
 23
-2.130172442191764
 33
0.0
  0
MTEXT
  5
12FD
330
1290
100
AcDbEntity
  8
D
 62
     0
100
AcDbMText
 10
219.4288009813191
 20
-2.130172442191764
 30
0.0
 40
0.04
 41
0.0
 46
0.0
 71
     5
 72
     1
  1
\A1;4.730 REF
 73
     1
 44
1.0
  0
POINT
  5
12FE
330
1290
100
AcDbEntity
  8
Defpoints
 62
     0
100
AcDbPoint
 10
221.7938063619768
 20
-1.356418626855145
 30
0.0
  0
POINT
  5
12FF
330
1290
100
AcDbEntity
  8
Defpoints
 62
     0
100
AcDbPoint
 10
217.0637956006614
 20
-1.460165411011399
 30
0.0
  0
POINT
  5
1300
330
1290
100
AcDbEntity
  8
Defpoints
 62
     0
100
AcDbPoint
 10
217.0637956006614
 20
-2.130172442191764
 30
0.0
  0
ENDBLK
  5
129C
330
1290
100
AcDbEntity
  8
0
100
AcDbBlockEnd
  0
ENDSEC
  0
SECTION
  2
ENTITIES
  0
TEXT
  5
45
330
18
100
AcDbEntity
  8
T
100
AcDbText
 10
15.48616755326692
 20
1.693507973140668
 30
0.0
 40
0.12
  1
 
100
AcDbText
  0
TEXT
  5
69
330
18
100
AcDbEntity
  8
D
100
AcDbText
 10
5.604806811939204
 20
5.027631219471905
 30
0.0
 40
0.1
  1

100
AcDbText
  0
LINE
  5
F24
330
18
100
AcDbEntity
  8
PICK
100
AcDbLine
 10
217.1842956006615
 20
-1.269665411011402
 30
0.0
 11
219.9657956006615
 21
-1.269665411011402
 31
0.0
  0
LINE
  5
F25
330
18
100
AcDbEntity
  8
PICK
100
AcDbLine
 10
217.1842956006615
 20
-1.580665411011395
 30
0.0
 11
220.1286197426998
 21
-1.580665411011395
 31
0.0
  0
POINT
  5
F29
330
18
100
AcDbEntity
  8
D
100
AcDbPoint
 10
217.0637956006614
 20
-1.390165411011395
 30
0.0
  0
ARC
  5
F2A
330
18
100
AcDbEntity
  8
PICK
100
AcDbCircle
 10
217.1842956006615
 20
-1.390165411011395
 30
0.0
 40
0.1204999999999998
100
AcDbArc
 50
90.0
 51
180.0
  0
LINE
  5
F2B
330
18
100
AcDbEntity
  8
PICK
100
AcDbLine
 10
217.0637956006614
 20
-1.460165411011395
 30
0.0
 11
217.0637956006614
 21
-1.390165411011395
 31
0.0
  0
ARC
  5
F2C
330
18
100
AcDbEntity
  8
PICK
100
AcDbCircle
 10
217.1842956006615
 20
-1.460165411011402
 30
0.0
 40
0.1204999999999998
100
AcDbArc
 50
179.9999999999988
 51
270.0
  0
LINE
  5
F2D
330
18
100
AcDbEntity
  8
PICK
100
AcDbLine
 10
221.5940038351671
 20
-1.488418621408101
 30
0.0
 11
220.4813462692261
 21
-1.452392595966223
 31
0.0
  0
LINE
  5
F2E
330
18
100
AcDbEntity
  8
PICK
100
AcDbLine
 10
221.592996446949
 20
-1.557379846400252
 30
0.0
 11
220.2153776230694
 21
-1.557379846400252
 31
0.0
  0
LINE
  5
F2F
330
18
100
AcDbEntity
  8
PICK
100
AcDbLine
 10
220.4813462692261
 20
-1.452392595966223
 30
0.0
 11
220.4377956006614
 21
-1.446665411011395
 31
0.0
  0
ARC
  5
F30
330
18
100
AcDbEntity
  8
PICK
100
AcDbCircle
 10
219.9299898472671
 20
-2.082980753396277
 30
0.0
 40
0.8141031250000029
100
AcDbArc
 50
51.40869651708111
 51
87.47921304375257
  0
ARC
  5
F31
330
18
100
AcDbEntity
  8
PICK
100
AcDbCircle
 10
220.1217076716806
 20
-1.381647248011283
 30
0.0
 40
0.1991381578947491
100
AcDbArc
 50
271.9891318990091
 51
298.0587523215963
  0
LINE
  5
F32
330
18
100
AcDbEntity
  8
PICK
100
AcDbLine
 10
221.7247964645385
 20
-1.356418617465166
 30
0.0
 11
221.7938063619768
 21
-1.356418626855145
 31
0.0
  0
ARC
  5
F33
330
18
100
AcDbEntity
  8
PICK
100
AcDbCircle
 10
221.5928062757551
 20
-1.356379846400251
 30
0.0
 40
0.201000089962873
100
AcDbArc
 50
269.9457910271202
 51
359.9889454954621
  0
ARC
  5
F34
330
18
100
AcDbEntity
  8
PICK
100
AcDbCircle
 10
221.5927456723537
 20
-1.356373815564822
 30
0.0
 40
0.1320507997849792
100
AcDbArc
 50
270.5459149811639
 51
359.9805608155582
  0
LINE
  5
F5C
330
18
100
AcDbEntity
  8
Title Block
100
AcDbLine
 10
222.8671132055122
 20
0.6807462179658899
 30
0.0
 11
222.8671132055122
 21
-4.19425378203411
 31
0.0
  0
LINE
  5
F5D
330
18
100
AcDbEntity
  8
Title Block
100
AcDbLine
 10
215.1171132055122
 20
-4.19425378203411
 30
0.0
 11
215.1171132055122
 21
0.6807462179658899
 31
0.0
  0
LINE
  5
F5E
330
18
100
AcDbEntity
  8
Title Block
100
AcDbLine
 10
222.8671132055122
 20
-4.19425378203411
 30
0.0
 11
215.1171132055122
 21
-4.19425378203411
 31
0.0
  0
MTEXT
  5
F5F
330
18
100
AcDbEntity
  8
TITLE BLOCK TEXT
100
AcDbMText
 10
220.3496846080445
 20
-3.746666059204761
 30
0.0
 40
0.036
 41
0.0
 46
0.0
 71
     4
 72
     1
  1
MATL: 1095 STEEL\PMATL CERTS REQUIRED\PFINISH: TUMBLE DEBUR
  7
Roman
 73
     1
 44
1.0
  0
MTEXT
  5
F60
330
18
100
AcDbEntity
  8
TITLE BLOCK TEXT
100
AcDbMText
 10
220.3446099066594
 20
-4.035675370464758
 30
0.0
 40
0.036
 41
0.0
 46
0.0
 71
     4
 72
     1
  1
TOLERANCES:\PX.XXX +/- 0.005"\PFRACTIONS +/- 1/64"\PANGLES +/- 1/2
  7
Roman
 73
     1
 44
1.0
  0
LINE
  5
F62
330
18
100
AcDbEntity
  8
Title Block
100
AcDbLine
 10
220.2808159956285
 20
-3.594253782034109
 30
0.0
 11
222.867113205512
 21
-3.594253782034109
 31
0.0
  0
LINE
  5
F63
330
18
100
AcDbEntity
  8
Title Block
100
AcDbLine
 10
220.2808159956286
 20
-4.19425378203411
 30
0.0
 11
220.2808159956286
 21
-3.379762381082252
 31
0.0
  0
TEXT
  5
F65
330
18
100
AcDbEntity
  8
TITLE BLOCK TEXT
100
AcDbText
 10
221.8279701110593
 20
-4.145839862090286
 30
0.0
 40
0.067392
  1
ISON-1016-01-01
  7
Roman
100
AcDbText
  0
LINE
  5
F66
330
18
100
AcDbEntity
  8
Title Block
100
AcDbLine
 10
221.1129344065043
 20
-4.19425378203411
 30
0.0
 11
222.867113205512
 21
-4.19425378203411
 31
0.0
  0
LINE
  5
F67
330
18
100
AcDbEntity
  8
Title Block
100
AcDbLine
 10
221.1129344065043
 20
-3.966253782034112
 30
0.0
 11
222.867113205512
 21
-3.966253782034112
 31
0.0
  0
LINE
  5
F68
330
18
100
AcDbEntity
  8
Title Block
100
AcDbLine
 10
221.9689509740085
 20
-3.966253782034112
 30
0.0
 11
221.9689509740086
 21
-3.594253782034178
 31
0.0
  0
LINE
  5
F69
330
18
100
AcDbEntity
  8
Title Block
100
AcDbLine
 10
221.1129344065044
 20
-4.19425378203411
 30
0.0
 11
221.1129344065042
 21
-3.379762381082252
 31
0.0
  0
LINE
  5
F6A
330
18
100
AcDbEntity
  8
Title Block
100
AcDbLine
 10
221.7583542112901
 20
-4.19425378203411
 30
0.0
 11
221.7583542112901
 21
-3.966253782034112
 31
0.0
  0
LINE
  5
F6B
330
18
100
AcDbEntity
  8
Title Block
100
AcDbLine
 10
221.5589703949634
 20
-4.19425378203411
 30
0.0
 11
221.5589703949634
 21
-3.966253782034112
 31
0.0
  0
TEXT
  5
F6C
330
18
100
AcDbEntity
  8
TITLE BLOCK TEXT
100
AcDbText
 10
221.3761493243485
 20
-4.145839862090286
 30
0.0
 40
0.048
  1
2:1
  7
Roman
100
AcDbText
  0
MTEXT
  5
F6D
330
18
100
AcDbEntity
  8
TITLE BLOCK TEXT
100
AcDbMText
 10
221.6084994779424
 20
-4.014697940828336
 30
0.0
 40
0.036
 41
0.0
 46
0.0
 71
     4
 72
     1
  1
REV.
  7
Roman
 73
     1
 44
1.0
  0
LINE
  5
F6E
330
18
100
AcDbEntity
  8
Title Block
100
AcDbLine
 10
221.3188540139814
 20
-4.19425378203411
 30
0.0
 11
221.3188540139814
 21
-3.966253782034112
 31
0.0
  0
TEXT
  5
F6F
330
18
100
AcDbEntity
  8
TITLE BLOCK TEXT
100
AcDbText
 10
221.1908273965526
 20
-4.145839862090286
 30
0.0
 40
0.048
  1
B
  7
Roman
100
AcDbText
  0
MTEXT
  5
F70
330
18
100
AcDbEntity
  8
TITLE BLOCK TEXT
100
AcDbMText
 10
221.1579325797837
 20
-4.014697940828336
 30
0.0
 40
0.036
 41
0.0
 46
0.0
 71
     4
 72
     1
  1
SIZE
  7
Roman
 73
     1
 44
1.0
  0
MTEXT
  5
F72
330
18
100
AcDbEntity
  8
TITLE BLOCK TEXT
100
AcDbMText
 10
221.3491514798801
 20
-4.014697940828336
 30
0.0
 40
0.036
 41
0.0
 46
0.0
 71
     4
 72
     1
  1
SCALE
  7
Roman
 73
     1
 44
1.0
  0
TEXT
  5
F73
330
18
100
AcDbEntity
  8
TITLE BLOCK TEXT
100
AcDbText
 10
221.8354072920479
 20
-4.034713782034117
 30
0.0
 40
0.039
  1
DWG NO.
  7
Roman
100
AcDbText
  0
LINE
  5
F74
330
18
100
AcDbEntity
  8
Title Block
100
AcDbLine
 10
215.1171132055122
 20
0.6807462179658899
 30
0.0
 11
222.8671132055122
 21
0.6807462179658899
 31
0.0
  0
TEXT
  5
F75
330
18
100
AcDbEntity
  8
TITLE BLOCK TEXT
100
AcDbText
 10
220.6963132055122
 20
0.5849262179658635
 30
0.0
 40
0.039
  1
DESCRIPTION
  7
Roman
100
AcDbText
  0
LINE
  5
F76
330
18
100
AcDbEntity
  8
Title Block
100
AcDbLine
 10
219.8671132055122
 20
0.5307462179658895
 30
0.0
 11
222.8671132055122
 21
0.5307462179658895
 31
0.0
  0
LINE
  5
F77
330
18
100
AcDbEntity
  8
Title Block
100
AcDbLine
 10
219.8671132055122
 20
0.6807462179658899
 30
0.0
 11
222.8671132055122
 21
0.6807462179658899
 31
0.0
  0
TEXT
  5
F78
330
18
100
AcDbEntity
  8
TITLE BLOCK TEXT
100
AcDbText
 10
219.9151732055121
 20
0.5849262179658635
 30
0.0
 40
0.039
  1
REV
  7
Roman
100
AcDbText
  0
LINE
  5
F79
330
18
100
AcDbEntity
  8
Title Block
100
AcDbLine
 10
219.8671132055122
 20
0.5307462179658895
 30
0.0
 11
219.8671132055122
 21
0.6807462179658899
 31
0.0
  0
LINE
  5
F7A
330
18
100
AcDbEntity
  8
Title Block
100
AcDbLine
 10
220.0951132055123
 20
0.5307462179658895
 30
0.0
 11
220.0951132055123
 21
0.6807462179658899
 31
0.0
  0
TEXT
  5
F7B
330
18
100
AcDbEntity
  8
TITLE BLOCK TEXT
100
AcDbText
 10
222.4119532055121
 20
0.5849262179658635
 30
0.0
 40
0.039
  1
APPROVED
  7
Roman
100
AcDbText
  0
LINE
  5
F7C
330
18
100
AcDbEntity
  8
Title Block
100
AcDbLine
 10
221.7391132055121
 20
0.5307462179658895
 30
0.0
 11
221.7391132055121
 21
0.6807462179658899
 31
0.0
  0
LINE
  5
F7D
330
18
100
AcDbEntity
  8
Title Block
100
AcDbLine
 10
222.2671132055122
 20
0.5307462179658895
 30
0.0
 11
222.2671132055122
 21
0.6807462179658899
 31
0.0
  0
TEXT
  5
F7E
330
18
100
AcDbEntity
  8
TITLE BLOCK TEXT
100
AcDbText
 10
221.9357332055122
 20
0.5849262179658635
 30
0.0
 40
0.039
  1
DATE
  7
Roman
100
AcDbText
  0
LINE
  5
107B
330
18
100
AcDbEntity
  8
Title Block
100
AcDbLine
 10
215.5465559627433
 20
-3.757198151239173
 30
0.0
 11
217.0187180337625
 21
-3.757198151239173
 31
0.0
  0
LINE
  5
107C
330
18
100
AcDbEntity
  8
Title Block
100
AcDbLine
 10
215.5465559627433
 20
-3.601698151239176
 30
0.0
 11
216.9373059627433
 21
-3.601698151239176
 31
0.0
  0
ARC
  5
107D
330
18
100
AcDbEntity
  8
Title Block
100
AcDbCircle
 10
215.5465559627433
 20
-3.696948151239176
 30
0.0
 40
0.0602499999999999
100
AcDbArc
 50
179.9999999999988
 51
270.0
  0
LINE
  5
107E
330
18
100
AcDbEntity
  8
Title Block
100
AcDbLine
 10
215.4863059627433
 20
-3.696948151239173
 30
0.0
 11
215.4863059627433
 21
-3.661948151239172
 31
0.0
  0
ARC
  5
107F
330
18
100
AcDbEntity
  8
Title Block
100
AcDbCircle
 10
215.5465559627433
 20
-3.661948151239172
 30
0.0
 40
0.0602499999999999
100
AcDbArc
 50
90.0
 51
180.0
  0
LINE
  5
1081
330
18
100
AcDbEntity
  8
Title Block
100
AcDbLine
 10
217.750906385887
 20
-3.745555368933601
 30
0.0
 11
217.0620969739473
 21
-3.745555368933601
 31
0.0
  0
LINE
  5
1082
330
18
100
AcDbEntity
  8
Title Block
100
AcDbLine
 10
217.7514100799961
 20
-3.711074756437525
 30
0.0
 11
217.1950812970256
 21
-3.693061743716587
 31
0.0
  0
ARC
  5
1083
330
18
100
AcDbEntity
  8
Title Block
100
AcDbCircle
 10
217.0152619982529
 20
-3.657689069739117
 30
0.0
 40
0.0995690789473746
100
AcDbArc
 50
271.9891318990091
 51
298.0587523215963
  0
ARC
  5
1084
330
18
100
AcDbEntity
  8
Title Block
100
AcDbCircle
 10
216.9194030860461
 20
-4.008355822431614
 30
0.0
 40
0.4070515625000015
100
AcDbArc
 50
51.40869651708111
 51
87.47921304375257
  0
LINE
  5
1085
330
18
100
AcDbEntity
  8
Title Block
100
AcDbLine
 10
217.1950812970256
 20
-3.693061743716587
 30
0.0
 11
217.1733059627433
 21
-3.690198151239172
 31
0.0
  0
ARC
  5
1086
330
18
100
AcDbEntity
  8
Title Block
100
AcDbCircle
 10
217.7507809985894
 20
-3.645052353515886
 30
0.0
 40
0.0660253998924896
100
AcDbArc
 50
270.5459149811639
 51
359.9805608155582
  0
ARC
  5
1087
330
18
100
AcDbEntity
  8
Title Block
100
AcDbCircle
 10
217.7508113002901
 20
-3.645055368933601
 30
0.0
 40
0.1005000449814365
100
AcDbArc
 50
269.9457910271202
 51
359.9889454954621
  0
LINE
  5
1088
330
18
100
AcDbEntity
  8
Title Block
100
AcDbLine
 10
217.8168063946818
 20
-3.645074754466058
 30
0.0
 11
217.851311343401
 21
-3.645074759161047
 31
0.0
  0
DIMENSION
  5
1093
330
18
100
AcDbEntity
  8
D
100
AcDbDimension
280
     0
  2
*D20
 10
217.0637956006614
 20
-1.390165411011395
 30
0.0
 11
216.7513564241626
 21
-1.390165411011395
 31
0.0
 70
    38
 71
     5
 42
0.0
 73
     0
 74
     0
 75
     0
  3
TPS3
100
AcDbOrdinateDimension
 13
217.0637956006614
 23
-1.390165411011395
 33
0.0
 14
216.8540230908292
 24
-1.390165411011395
 34
0.0
  0
POINT
  5
109C
330
18
100
AcDbEntity
  8
D
100
AcDbPoint
 10
217.1842956006615
 20
-1.269665411011402
 30
0.0
  0
POINT
  5
109D
330
18
100
AcDbEntity
  8
D
100
AcDbPoint
 10
217.1842956006615
 20
-1.580665411011395
 30
0.0
  0
POINT
  5
109E
330
18
100
AcDbEntity
  8
D
100
AcDbPoint
 10
217.0637956006614
 20
-1.460165411011399
 30
0.0
  0
POINT
  5
109F
330
18
100
AcDbEntity
  8
D
100
AcDbPoint
 10
219.9657956006615
 20
-1.269665411011402
 30
0.0
  0
POINT
  5
10A0
330
18
100
AcDbEntity
  8
D
100
AcDbPoint
 10
220.4377956006614
 20
-1.446665411011399
 30
0.0
  0
POINT
  5
10A1
330
18
100
AcDbEntity
  8
D
100
AcDbPoint
 10
220.4813462692261
 20
-1.452392595966223
 30
0.0
  0
POINT
  5
10A2
330
18
100
AcDbEntity
  8
D
100
AcDbPoint
 10
221.5940038351671
 20
-1.488418621408101
 30
0.0
  0
POINT
  5
10A3
330
18
100
AcDbEntity
  8
D
100
AcDbPoint
 10
221.7247964645385
 20
-1.356418617465166
 30
0.0
  0
POINT
  5
10A4
330
18
100
AcDbEntity
  8
D
100
AcDbPoint
 10
221.7938063619768
 20
-1.356418626855145
 30
0.0
  0
POINT
  5
10A5
330
18
100
AcDbEntity
  8
D
100
AcDbPoint
 10
221.5926161045611
 20
-1.557379846400251
 30
0.0
  0
POINT
  5
10A6
330
18
100
AcDbEntity
  8
D
100
AcDbPoint
 10
220.2153776230694
 20
-1.557379846400252
 30
0.0
  0
POINT
  5
10A7
330
18
100
AcDbEntity
  8
D
100
AcDbPoint
 10
220.1286197426998
 20
-1.580665411011398
 30
0.0
  0
DIMENSION
  5
10BA
330
18
100
AcDbEntity
  8
D
100
AcDbDimension
280
     0
  2
*D21
 10
217.0637956006614
 20
-1.390165411011395
 30
0.0
 11
217.1842956006615
 21
-0.9794562187851395
 31
0.0
 70
   102
 71
     5
 42
0.1204999999999927
 73
     0
 74
     0
 75
     0
  3
TPS3
100
AcDbOrdinateDimension
 13
217.1842956006615
 23
-1.269665411011402
 33
0.0
 14
217.1842956006615
 24
-1.078789552118507
 34
0.0
  0
DIMENSION
  5
10C3
330
18
100
AcDbEntity
  8
D
100
AcDbDimension
280
     0
  2
*D22
 10
217.0637956006614
 20
-1.390165411011395
 30
0.0
 11
217.1842956006615
 21
-1.788468183205417
 31
0.0
 70
   102
 71
     5
 42
0.1204999999999927
 73
     0
 74
     0
 75
     0
  3
TPS3
100
AcDbOrdinateDimension
 13
217.1842956006615
 23
-1.580665411011395
 33
0.0
 14
217.1842956006615
 24
-1.689134849872118
 34
0.0
  0
DIMENSION
  5
10CC
330
18
100
AcDbEntity
  8
D
100
AcDbDimension
280
     0
  2
*D23
 10
217.0637956006614
 20
-1.390165411011395
 30
0.0
 11
219.9657956006615
 21
-0.979778800867858
 31
0.0
 70
   102
 71
     5
 42
2.902000000000043
 73
     0
 74
     0
 75
     0
  3
TPS3
100
AcDbOrdinateDimension
 13
219.9657956006615
 23
-1.269665411011402
 33
0.0
 14
219.9657956006615
 24
-1.09244546753456
 34
0.0
  0
DIMENSION
  5
10D5
330
18
100
AcDbEntity
  8
D
100
AcDbDimension
280
     0
  2
*D24
 10
217.0637956006614
 20
-1.390165411011395
 30
0.0
 11
220.3337972051948
 21
-1.060006777705446
 31
0.0
 70
   102
 71
     5
 42
3.373999999999995
 73
     0
 74
     0
 75
     0
  3
TPS3
100
AcDbOrdinateDimension
 13
220.4377956006614
 23
-1.446665411011399
 33
0.0
 14
220.3337972051948
 24
-1.176006777705481
 34
0.0
  0
DIMENSION
  5
10E0
330
18
100
AcDbEntity
  8
D
100
AcDbDimension
280
     0
  2
*D25
 10
217.0637956006614
 20
-1.390165411011395
 30
0.0
 11
220.5428748863648
 21
-1.043461897123832
 31
0.0
 70
   102
 71
     5
 42
3.417550668564587
 73
     0
 74
     0
 75
     0
  3
TPS3
100
AcDbOrdinateDimension
 13
220.4813462692261
 23
-1.452392595966223
 33
0.0
 14
220.5428748863648
 24
-1.152795230457201
 34
0.0
  0
DIMENSION
  5
10EB
330
18
100
AcDbEntity
  8
D
100
AcDbDimension
280
     0
  2
*D26
 10
217.0637956006614
 20
-1.390165411011395
 30
0.0
 11
220.3570279555897
 21
-1.916691726924627
 31
0.0
 70
   102
 71
     5
 42
3.15158202240795
 73
     0
 74
     0
 75
     0
  3
TPS3
100
AcDbOrdinateDimension
 13
220.2153776230694
 23
-1.557379846400252
 33
0.0
 14
220.3570279555897
 24
-1.807358393591329
 34
0.0
  0
DIMENSION
  5
10F6
330
18
100
AcDbEntity
  8
D
100
AcDbDimension
280
     0
  2
*D27
 10
217.0637956006614
 20
-1.390165411011395
 30
0.0
 11
220.0132112727982
 21
-1.906098175229464
 31
0.0
 70
   102
 71
     5
 42
3.064824142038332
 73
     0
 74
     0
 75
     0
  3
TPS3
100
AcDbOrdinateDimension
 13
220.1286197426998
 23
-1.580665411011398
 33
0.0
 14
220.0132112727982
 24
-1.793431508562832
 34
0.0
  0
DIMENSION
  5
1101
330
18
100
AcDbEntity
  8
D
100
AcDbDimension
280
     0
  2
*D28
 10
220.1217076716804
 20
-1.381647248011226
 30
0.0
 11
220.1960262355182
 21
-1.796176015534193
 31
0.0
 70
    36
 71
     5
 42
0.1991381578948292
 73
     0
 74
     0
 75
     0
  3
TPS3
100
AcDbRadialDimension
 15
220.1568497304624
 25
-1.577660108901298
 35
0.0
 40
0.0
1001
ACAD
1000
DSTYLE
1002
{
1070
   288
1070
     1
1002
}
  0
DIMENSION
  5
110A
330
18
100
AcDbEntity
  8
D
100
AcDbDimension
280
     0
  2
*D29
 10
219.9299898472668
 20
-2.082980753396292
 30
0.0
 11
220.2535060140054
 21
-0.8272548073470531
 31
0.0
 70
   164
 71
     5
 42
0.8141031250001091
 73
     0
 74
     0
 75
     0
  3
TPS3
100
AcDbRadialDimension
 15
220.1330971954702
 25
-1.294620871590588
 35
0.0
 40
0.0
1001
ACAD
1000
DSTYLE
1002
{
1070
   288
1070
     1
1002
}
  0
DIMENSION
  5
1113
330
18
100
AcDbEntity
  8
D
100
AcDbDimension
280
     0
  2
*D30
 10
217.0637956006614
 20
-1.390165411011395
 30
0.0
 11
220.0806513946879
 21
-1.403374975211733
 31
0.0
 70
    38
 71
     5
 42
0.0565000000000038
 73
     0
 74
     0
 75
     0
  3
TPS3
100
AcDbOrdinateDimension
 13
220.4377956006614
 23
-1.446665411011399
 33
0.0
 14
220.1899847280212
 24
-1.403374975211733
 34
0.0
  0
DIMENSION
  5
111E
330
18
100
AcDbEntity
  8
D
100
AcDbDimension
280
     0
  2
*D31
 10
217.0637956006614
 20
-1.390165411011395
 30
0.0
 11
220.7989065101358
 21
-1.400255250729003
 31
0.0
 70
    38
 71
     5
 42
0.0622271849548284
 73
     0
 74
     0
 75
     0
  3
TPS3
100
AcDbOrdinateDimension
 13
220.4813462692261
 23
-1.452392595966223
 33
0.0
 14
220.6895731768025
 24
-1.400255250729003
 34
0.0
  0
DIMENSION
  5
1129
330
18
100
AcDbEntity
  8
D
100
AcDbDimension
280
     0
  2
*D32
 10
217.0637956006614
 20
-1.390165411011395
 30
0.0
 11
221.5115197682797
 21
-1.12231163283918
 31
0.0
 70
   102
 71
     5
 42
4.530208234505636
 73
     0
 74
     0
 75
     0
  3
TPS3
100
AcDbOrdinateDimension
 13
221.5940038351671
 23
-1.488418621408101
 33
0.0
 14
221.5115197682797
 24
-1.234978299505883
 34
0.0
  0
DIMENSION
  5
1134
330
18
100
AcDbEntity
  8
D
100
AcDbDimension
280
     0
  2
*D33
 10
217.0637956006614
 20
-1.390165411011395
 30
0.0
 11
221.6458204713581
 21
-1.035170356944816
 31
0.0
 70
   230
 71
     5
 42
4.661000863877092
 73
     0
 74
     0
 75
     0
  3
TPS3
100
AcDbOrdinateDimension
 13
221.7247964645385
 23
-1.356418617465166
 33
0.0
 14
221.6458204713581
 24
-1.144503690278185
 34
0.0
  0
DIMENSION
  5
113D
330
18
100
AcDbEntity
  8
D
100
AcDbDimension
280
     0
  2
*D34
 10
217.0637956006614
 20
-1.390165411011395
 30
0.0
 11
221.7938063619768
 21
-1.034956748094183
 31
0.0
 70
   102
 71
     5
 42
4.730010761315355
 73
     0
 74
     0
 75
     0
  3
TPS3
100
AcDbOrdinateDimension
 13
221.7938063619768
 23
-1.356418626855145
 33
0.0
 14
221.7938063619768
 24
-1.147623414760886
 34
0.0
  0
DIMENSION
  5
1146
330
18
100
AcDbEntity
  8
D
100
AcDbDimension
280
     0
  2
*D35
 10
217.0637956006614
 20
-1.390165411011395
 30
0.0
 11
222.2452508021008
 21
-1.356418626855145
 31
0.0
 70
    38
  1
<> TYP (2)
 71
     5
 42
0.03374678415625
 73
     0
 74
     0
 75
     0
  3
TPS3
100
AcDbOrdinateDimension
 13
221.7938063619768
 23
-1.356418626855145
 33
0.0
 14
221.9892508021008
 24
-1.356418626855145
 34
0.0
  0
DIMENSION
  5
114F
330
18
100
AcDbEntity
  8
D
100
AcDbDimension
280
     0
  2
*D36
 10
217.0637956006614
 20
-1.390165411011395
 30
0.0
 11
221.5926161045611
 21
-1.843909713341453
 31
0.0
 70
   102
 71
     5
 42
4.528820503899595
 73
     0
 74
     0
 75
     0
  3
TPS3
100
AcDbOrdinateDimension
 13
221.5926161045611
 23
-1.557379846400251
 33
0.0
 14
221.5926161045611
 24
-1.727909713341489
 34
0.0
  0
DIMENSION
  5
1158
330
18
100
AcDbEntity
  8
D
100
AcDbDimension
280
     0
  2
*D37
 10
217.0637956006614
 20
-1.390165411011395
 30
0.0
 11
221.9859660463398
 21
-1.557379846400251
 31
0.0
 70
    38
 71
     5
 42
0.1672144353888565
 73
     0
 74
     0
 75
     0
  3
TPS3
100
AcDbOrdinateDimension
 13
221.5926161045611
 23
-1.557379846400251
 33
0.0
 14
221.8799660463398
 24
-1.557379846400251
 34
0.0
  0
DIMENSION
  5
1161
330
18
100
AcDbEntity
  8
D
100
AcDbDimension
280
     0
  2
*D38
 10
217.0637956006614
 20
-1.390165411011395
 30
0.0
 11
220.6021197951224
 21
-1.633908383706369
 31
0.0
 70
    38
 71
     5
 42
0.1672144353888569
 73
     0
 74
     0
 75
     0
  3
TPS3
100
AcDbOrdinateDimension
 13
220.2153776230694
 23
-1.557379846400252
 33
0.0
 14
220.4961197951224
 24
-1.633908383706369
 34
0.0
  0
DIMENSION
  5
116C
330
18
100
AcDbEntity
  8
D
100
AcDbDimension
280
     0
  2
*D39
 10
217.0637956006614
 20
-1.390165411011395
 30
0.0
 11
219.8042198182784
 21
-1.512094655074236
 31
0.0
 70
    38
 71
     5
 42
0.1905000000000037
 73
     0
 74
     0
 75
     0
  3
TPS3
100
AcDbOrdinateDimension
 13
220.1286197426998
 23
-1.580665411011398
 33
0.0
 14
219.9035531516118
 24
-1.512094655074236
 34
0.0
  0
DIMENSION
  5
1177
330
18
100
AcDbEntity
  8
D
100
AcDbDimension
280
     0
  2
*D40
 10
217.0637956006614
 20
-1.390165411011395
 30
0.0
 11
216.755152174054
 21
-1.653965116881835
 31
0.0
 70
    38
 71
     5
 42
0.1905000000000001
 73
     0
 74
     0
 75
     0
  3
TPS3
100
AcDbOrdinateDimension
 13
217.1842956006615
 23
-1.580665411011395
 33
0.0
 14
216.8544855073873
 24
-1.653965116881835
 34
0.0
  0
DIMENSION
  5
1182
330
18
100
AcDbEntity
  8
D
100
AcDbDimension
280
     0
  2
*D41
 10
217.0637956006614
 20
-1.390165411011395
 30
0.0
 11
216.7684004268864
 21
-1.132228398610834
 31
0.0
 70
   166
 71
     5
 42
0.1204999999999927
 73
     0
 74
     0
 75
     0
  3
TPS3
100
AcDbOrdinateDimension
 13
217.1842956006615
 23
-1.269665411011402
 33
0.0
 14
216.8677337602198
 24
-1.132228398610834
 34
0.0
  0
LINE
  5
119C
330
18
100
AcDbEntity
  8
PICK
100
AcDbLine
 10
215.9464550908254
 20
-1.580665411011395
 30
0.0
 11
215.9464550908254
 21
-1.269665411011402
 31
0.0
  0
LINE
  5
119D
330
18
100
AcDbEntity
  8
PICK
100
AcDbLine
 10
215.9664550908254
 20
-1.580665411011395
 30
0.0
 11
215.9664550908254
 21
-1.269665411011402
 31
0.0
  0
LINE
  5
119E
330
18
100
AcDbEntity
  8
PICK
100
AcDbLine
 10
214.836885864041
 20
-5.999676172326758
 30
0.0
 11
214.856885864041
 21
-5.999676172326758
 31
0.0
  0
LINE
  5
119F
330
18
100
AcDbEntity
  8
PICK
100
AcDbLine
 10
215.9664550908254
 20
-1.269665411011402
 30
0.0
 11
215.9464550908254
 21
-1.269665411011402
 31
0.0
  0
LINE
  5
11A0
330
18
100
AcDbEntity
  8
PICK
100
AcDbLine
 10
215.9464550908254
 20
-1.269665411011402
 30
0.0
 11
215.9664550908254
 21
-1.269665411011402
 31
0.0
  0
LINE
  5
11A1
330
18
100
AcDbEntity
  8
PICK
100
AcDbLine
 10
215.9464550908254
 20
-1.580665411011395
 30
0.0
 11
215.9664550908254
 21
-1.580665411011395
 31
0.0
  0
DIMENSION
  5
11A2
330
18
100
AcDbEntity
  8
D
100
AcDbDimension
280
     0
  2
*D42
 10
215.9464550908254
 20
-1.073153340859391
 30
0.0
 11
215.6644550908254
 21
-1.073153340859391
 31
0.0
 70
    32
  1
<> REF
 71
     5
 42
0.0199999999999818
 73
     0
 74
     0
 75
     0
  3
TPS3
100
AcDbAlignedDimension
 13
215.9664550908254
 23
-1.269665411011402
 33
0.0
 14
215.9464550908254
 24
-1.269665411011402
 34
0.0
100
AcDbRotatedDimension
  0
LINE
  5
123E
330
18
100
AcDbEntity
  8
Title Block
100
AcDbLine
 10
218.3670431001213
 20
-3.194056640204962
 30
0.0
 11
215.1171132055122
 21
-3.194056640204962
 31
0.0
  0
MTEXT
  5
1240
330
18
100
AcDbEntity
  8
D
100
AcDbMText
 10
216.6536727265738
 20
-3.963035119641034
 30
0.0
 40
0.04
 41
0.0
 46
0.0
 71
     5
 72
     1
  1
*****THIS VIEW IS 1:1 ONLY WHEN PRINTED \PON 11X17 PAPER.*****
 73
     1
 44
1.0
  0
LINE
  5
1241
330
18
100
AcDbEntity
  8
Title Block
100
AcDbLine
 10
218.3670431001213
 20
-4.19425378203411
 30
0.0
 11
218.3670431001213
 21
-3.194056640204962
 31
0.0
  0
DIMENSION
  5
1242
330
18
100
AcDbEntity
  8
D
100
AcDbDimension
280
     0
  2
*D43
 10
217.184295600661
 20
-1.390165411011381
 30
0.0
 11
216.9451261098883
 21
-0.9240082871778838
 31
0.0
 70
   164
 71
     5
 42
0.1204999999997796
 73
     0
 74
     0
 75
     0
  3
TPS3
100
AcDbRadialDimension
 15
217.1292885849125
 25
-1.282953106594419
 35
0.0
 40
0.0
1001
ACAD
1000
DSTYLE
1002
{
1070
   288
1070
     1
1002
}
  0
DIMENSION
  5
124B
330
18
100
AcDbEntity
  8
D
100
AcDbDimension
280
     0
  2
*D44
 10
217.1842956006612
 20
-1.460165411011416
 30
0.0
 11
216.9271326792255
 21
-1.786981088852087
 31
0.0
 70
   164
 71
     5
 42
0.1204999999999075
 73
     0
 74
     0
 75
     0
  3
TPS3
100
AcDbRadialDimension
 15
217.1097801908898
 25
-1.554863371425355
 35
0.0
 40
0.0
1001
ACAD
1000
DSTYLE
1002
{
1070
   288
1070
     1
1002
}
  0
DIMENSION
  5
1254
330
18
100
AcDbEntity
  8
D
100
AcDbDimension
280
     0
  2
*D45
 10
221.5928062757551
 20
-1.356379846400287
 30
0.0
 11
222.1426358122151
 21
-1.498980462280549
 31
0.0
 70
   164
 71
     5
 42
0.2010000899628892
 73
     0
 74
     0
 75
     0
  3
TPS3
100
AcDbRadialDimension
 15
221.7873692497948
 25
-1.406840576655348
 35
0.0
 40
0.0
1001
ACAD
1000
DSTYLE
1002
{
1070
   288
1070
     1
1002
}
  0
DIMENSION
  5
125D
330
18
100
AcDbEntity
  8
D
100
AcDbDimension
280
     0
  2
*D46
 10
221.5927456723538
 20
-1.356373815564936
 30
0.0
 11
221.3441769207548
 21
-1.260225042980167
 31
0.0
 70
   164
 71
     5
 42
0.1320507997848779
 73
     0
 74
     0
 75
     0
  3
TPS3
100
AcDbRadialDimension
 15
221.7159039395273
 25
-1.404012612260927
 35
0.0
 40
0.0
1001
ACAD
1000
DSTYLE
1002
{
1070
   279
1070
     1
1070
   288
1070
     1
1002
}
  0
DIMENSION
  5
1266
330
18
100
AcDbEntity
  8
D
100
AcDbDimension
280
     0
  2
*D47
 10
218.5540574471578
 20
-1.580665411011395
 30
0.0
 11
218.5540574471578
 21
-1.807998744344693
 31
0.0
 70
   160
  1
<> REF
 71
     5
 42
0.3109999999999928
 73
     0
 74
     0
 75
     0
  3
TPS3
100
AcDbAlignedDimension
 13
218.518449980763
 23
-1.269665411011402
 33
0.0
 14
218.518449980763
 24
-1.580665411011395
 34
0.0
 50
90.0
100
AcDbRotatedDimension
  0
DIMENSION
  5
128F
330
18
100
AcDbEntity
  8
D
100
AcDbDimension
280
     0
  2
*D48
 10
217.0637956006614
 20
-2.130172442191764
 30
0.0
 11
219.4288009813191
 21
-2.130172442191764
 31
0.0
 70
    32
  1
<> REF
 71
     5
 42
4.730010761315355
 73
     0
 74
     0
 75
     0
  3
TPS3
100
AcDbAlignedDimension
 13
221.7938063619768
 23
-1.356418626855145
 33
0.0
 14
217.0637956006614
 24
-1.460165411011399
 34
0.0
100
AcDbRotatedDimension
  0
MTEXT
  5
12A9
330
18
100
AcDbEntity
  8
TITLE BLOCK TEXT
100
AcDbMText
 10
220.361738226569
 20
-3.485247863358848
 30
0.0
 40
0.048
 41
0.0
 46
0.0
 71
     4
 72
     1
  1
MOCK-UP QTY: 30\PPROD QTY: 2500
  7
Roman
 73
     1
 44
1.0
  0
LINE
  5
12AA
330
18
100
AcDbEntity
  8
Title Block
100
AcDbLine
 10
220.2808159956285
 20
-3.379762381082252
 30
0.0
 11
221.1129344065042
 21
-3.379762381082251
 31
0.0
  0
MTEXT
  5
12AB
330
18
100
AcDbEntity
  8
TITLE BLOCK TEXT
100
AcDbMText
 10
221.3459265286968
 20
-3.342274995093253
 30
0.0
 40
0.036
 41
0.0
 46
0.0
 71
     4
 72
     1
  1
NOTES:\P-CAD FILES AVAILABLE WITH ORDER.\P-ACAD 2000 DWG OR ACAD DXF PROVIDED.\P-CAD FILE IN MAIN VIEW IS DRAWN 1:1.\P-BORDER IS SCALED TO PRINT.\P-LAYER TO CUT CALLED "PICK"
  7
Roman
 73
     1
 44
1.0
  0
MTEXT
  5
137A
330
18
100
AcDbEntity
  8
D
100
AcDbMText
 10
216.6536727265738
 20
-3.39668549162647
 30
0.0
 40
0.04
 41
0.0
 46
0.0
 71
     5
 72
     1
  1
*****THIS VIEW IS 1:1 ONLY WHEN PRINTED \PON 11X17 PAPER.*****
 73
     1
 44
1.0
  0
LINE
  5
13DF
330
18
100
AcDbEntity
  8
Title Block
100
AcDbLine
 10
220.2832050155143
 20
-3.859688787552666
 30
0.0
 11
221.9689509740086
 21
-3.859688787552283
 31
0.0
  0
MTEXT
  5
13E0
330
18
100
AcDbEntity
  8
TITLE BLOCK TEXT
100
AcDbMText
 10
221.1561052303493
 20
-3.91012371801049
 30
0.0
 40
0.048
 41
0.0
 46
0.0
 71
     4
 72
     1
  1
DATE: 5-18-2011
  7
Roman
 73
     1
 44
1.0
  0
MTEXT
  5
13E1
330
18
100
AcDbEntity
  8
TITLE BLOCK TEXT
100
AcDbMText
 10
221.1463230824977
 20
-3.725798926643472
 30
0.0
 40
0.048
 41
0.0
 46
0.0
 71
     4
 72
     1
  1
OPEN\PLOCK PICK SET\PPICK BLADE
  7
Roman
 73
     1
 44
1.0
  0
ENDSEC
  0
SECTION
  2
OBJECTS
  0
DICTIONARY
  5
C
330
0
100
AcDbDictionary
281
     1
  3
ACAD_COLOR
350
1421
  3
ACAD_GROUP
350
D
  3
ACAD_LAYOUT
350
107
  3
ACAD_MATERIAL
350
13F4
  3
ACAD_MLEADERSTYLE
350
1446
  3
ACAD_MLINESTYLE
350
E
  3
ACAD_PLOTSETTINGS
350
108
  3
ACAD_PLOTSTYLENAME
350
105
  3
ACAD_SCALELIST
350
1424
  3
ACAD_TABLESTYLE
350
1422
  3
ACAD_VISUALSTYLE
350
140D
  3
AcadDim
350
2A8
  3
ACDB_RECOMPOSE_DATA
350
1478
  3
AcDbVariableDictionary
350
146E
  3
ASE_INDEX_DICTIONARY
350
29C
  0
DICTIONARY
  5
144F
330
F
100
AcDbDictionary
280
     1
281
     1
  3
ADSK_XREC_LAYER_RECONCILED
360
1450
  0
DICTIONARY
  5
1451
330
24
100
AcDbDictionary
280
     1
281
     1
  3
ADSK_XREC_LAYER_RECONCILED
360
1452
  0
DICTIONARY
  5
1453
330
25
100
AcDbDictionary
280
     1
281
     1
  3
ADSK_XREC_LAYER_RECONCILED
360
1454
  0
DICTIONARY
  5
1455
330
26
100
AcDbDictionary
280
     1
281
     1
  3
ADSK_XREC_LAYER_RECONCILED
360
1456
  0
DICTIONARY
  5
1457
330
27
100
AcDbDictionary
280
     1
281
     1
  3
ADSK_XREC_LAYER_RECONCILED
360
1458
  0
DICTIONARY
  5
1459
330
28
100
AcDbDictionary
280
     1
281
     1
  3
ADSK_XREC_LAYER_RECONCILED
360
145A
  0
DICTIONARY
  5
145B
330
2A
100
AcDbDictionary
280
     1
281
     1
  3
ADSK_XREC_LAYER_RECONCILED
360
145C
  0
DICTIONARY
  5
145D
330
371
100
AcDbDictionary
280
     1
281
     1
  3
ADSK_XREC_LAYER_RECONCILED
360
145E
  0
DICTIONARY
  5
145F
330
372
100
AcDbDictionary
280
     1
281
     1
  3
ADSK_XREC_LAYER_RECONCILED
360
1460
  0
DICTIONARY
  5
1461
330
373
100
AcDbDictionary
280
     1
281
     1
  3
ADSK_XREC_LAYER_RECONCILED
360
1462
  0
DICTIONARY
  5
1463
330
374
100
AcDbDictionary
280
     1
281
     1
  3
ADSK_XREC_LAYER_RECONCILED
360
1464
  0
DICTIONARY
  5
1465
330
496
100
AcDbDictionary
280
     1
281
     1
  3
ADSK_XREC_LAYER_RECONCILED
360
1466
  0
DICTIONARY
  5
1467
330
4F0
100
AcDbDictionary
280
     1
281
     1
  3
ADSK_XREC_LAYER_RECONCILED
360
1468
  0
DICTIONARY
  5
1469
330
504
100
AcDbDictionary
280
     1
281
     1
  3
ADSK_XREC_LAYER_RECONCILED
360
146A
  0
DICTIONARY
  5
AF8
330
AF7
100
AcDbDictionary
280
     1
281
     1
  3
ADSK_XREC_LAYER_RECONCILED
360
146B
  0
DICTIONARY
  5
146C
330
1197
100
AcDbDictionary
280
     1
281
     1
  3
ADSK_XREC_LAYER_RECONCILED
360
146D
  0
DICTIONARY
  5
9AD
330
9A4
100
AcDbDictionary
280
     1
281
     1
  3
ACAD_SORTENTS
360
9AE
  0
DICTIONARY
  5
AA9
330
AA8
100
AcDbDictionary
280
     1
281
     1
  0
DICTIONARY
  5
AAB
330
AAA
100
AcDbDictionary
280
     1
281
     1
  0
DICTIONARY
  5
AAD
330
AAC
100
AcDbDictionary
280
     1
281
     1
  0
DICTIONARY
  5
AAF
330
AAE
100
AcDbDictionary
280
     1
281
     1
  0
DICTIONARY
  5
AB1
330
AB0
100
AcDbDictionary
280
     1
281
     1
  0
DICTIONARY
  5
AB3
330
AB2
100
AcDbDictionary
280
     1
281
     1
  0
DICTIONARY
  5
AB5
330
AB4
100
AcDbDictionary
280
     1
281
     1
  0
DICTIONARY
  5
AB7
330
AB6
100
AcDbDictionary
280
     1
281
     1
  0
DICTIONARY
  5
AB9
330
AB8
100
AcDbDictionary
280
     1
281
     1
  0
DICTIONARY
  5
ABB
330
ABA
100
AcDbDictionary
280
     1
281
     1
  0
DICTIONARY
  5
ABD
330
ABC
100
AcDbDictionary
280
     1
281
     1
  0
DICTIONARY
  5
ABF
330
ABE
100
AcDbDictionary
280
     1
281
     1
  0
DICTIONARY
  5
ACE
330
ACD
100
AcDbDictionary
280
     1
281
     1
  0
DICTIONARY
  5
AD0
330
ACF
100
AcDbDictionary
280
     1
281
     1
  0
DICTIONARY
  5
AD2
330
AD1
100
AcDbDictionary
280
     1
281
     1
  0
DICTIONARY
  5
AD4
330
AD3
100
AcDbDictionary
280
     1
281
     1
  0
DICTIONARY
  5
AD6
330
AD5
100
AcDbDictionary
280
     1
281
     1
  0
DICTIONARY
  5
1421
102
{ACAD_REACTORS
330
C
102
}
330
C
100
AcDbDictionary
281
     1
  0
DICTIONARY
  5
D
102
{ACAD_REACTORS
330
C
102
}
330
C
100
AcDbDictionary
281
     1
  0
DICTIONARY
  5
107
102
{ACAD_REACTORS
330
C
102
}
330
C
100
AcDbDictionary
281
     1
  3
Layout1
350
10A
  3
Model
350
109
  0
DICTIONARY
  5
13F4
102
{ACAD_REACTORS
330
C
102
}
330
C
100
AcDbDictionary
281
     1
  3
ByBlock
350
13FD
  3
ByLayer
350
13F5
  3
Global
350
1405
  0
DICTIONARY
  5
1446
102
{ACAD_REACTORS
330
C
102
}
330
C
100
AcDbDictionary
281
     1
  3
Standard
350
1447
  0
DICTIONARY
  5
E
102
{ACAD_REACTORS
330
C
102
}
330
C
100
AcDbDictionary
281
     1
  3
STANDARD
350
1B
  0
DICTIONARY
  5
108
102
{ACAD_REACTORS
330
C
102
}
330
C
100
AcDbDictionary
281
     1
  3
hp-a-fit
350
11C
  3
hp-B-1-1
350
11B
  0
ACDBDICTIONARYWDFLT
  5
105
102
{ACAD_REACTORS
330
C
102
}
330
C
100
AcDbDictionary
281
     1
  3
Normal
350
106
100
AcDbDictionaryWithDefault
340
106
  0
DICTIONARY
  5
1424
102
{ACAD_REACTORS
330
C
102
}
330
C
100
AcDbDictionary
281
     1
  3
A0
350
1425
  3
A1
350
1426
  3
A2
350
1427
  3
A3
350
1428
  3
A4
350
1429
  3
A5
350
142A
  3
A6
350
142B
  3
A7
350
142C
  3
A8
350
142D
  3
A9
350
142E
  3
B0
350
142F
  3
B1
350
1430
  3
B2
350
1431
  3
B3
350
1432
  3
B4
350
1433
  3
B5
350
1434
  3
B6
350
1435
  3
B7
350
1436
  3
B8
350
1437
  3
B9
350
1438
  3
C0
350
1439
  3
C1
350
143A
  3
C2
350
143B
  3
C3
350
143C
  3
C4
350
143D
  3
C5
350
143E
  3
C6
350
143F
  3
C7
350
1440
  3
C8
350
1441
  3
C9
350
1442
  3
D0
350
1443
  3
D1
350
1444
  3
D2
350
1445
  0
DICTIONARY
  5
1422
102
{ACAD_REACTORS
330
C
102
}
330
C
100
AcDbDictionary
281
     1
  3
Standard
350
1423
  0
DICTIONARY
  5
140D
102
{ACAD_REACTORS
330
C
102
}
330
C
100
AcDbDictionary
281
     1
  3
2dWireframe
350
1413
  3
3D Hidden
350
1415
  3
3dWireframe
350
1414
  3
Basic
350
1412
  3
Brighten
350
1419
  3
ColorChange
350
141D
  3
Conceptual
350
1416
  3
Dim
350
1418
  3
EdgeColorOff
350
1420
  3
Facepattern
350
141C
  3
Flat
350
140E
  3
FlatWithEdges
350
140F
  3
Gouraud
350
1410
  3
GouraudWithEdges
350
1411
  3
JitterOff
350
141E
  3
Linepattern
350
141B
  3
OverhangOff
350
141F
  3
Realistic
350
1417
  3
Thicken
350
141A
  0
XRECORD
  5
2A8
102
{ACAD_REACTORS
330
C
102
}
330
C
100
AcDbXrecord
280
     1
 90
   990106
  3

 60
     0
 61
     0
 62
     2
 63
     2
 64
     0
 65
     0
 66
     0
 67
     3
 68
     0
 69
     0
 70
     0
 71
     0
 72
     0
 40
0.0
170
     2
340
1240
  0
XRECORD
  5
1478
102
{ACAD_REACTORS
330
C
102
}
330
C
100
AcDbXrecord
280
     1
 90
        1
330
1423
  0
DICTIONARY
  5
146E
102
{ACAD_REACTORS
330
C
102
}
330
C
100
AcDbDictionary
281
     1
  3
CANNOSCALE
350
1472
  3
CMLEADERSTYLE
350
1470
  3
CTABLESTYLE
350
146F
  3
LAYEREVAL
350
1474
  3
LAYERNOTIFY
350
1475
  3
LIGHTINGUNITS
350
1473
  3
MSLTSCALE
350
1471
  0
DICTIONARY
  5
29C
102
{ACAD_REACTORS
330
C
102
}
330
C
100
AcDbDictionary
281
     1
  3
ASEBlockHierarchyIndexRecord
350
29E
1001
DCO15
1040
1663581020.26
  0
XRECORD
  5
1450
102
{ACAD_REACTORS
330
144F
102
}
330
144F
100
AcDbXrecord
280
     1
290
     1
  0
XRECORD
  5
1452
102
{ACAD_REACTORS
330
1451
102
}
330
1451
100
AcDbXrecord
280
     1
290
     1
  0
XRECORD
  5
1454
102
{ACAD_REACTORS
330
1453
102
}
330
1453
100
AcDbXrecord
280
     1
290
     1
  0
XRECORD
  5
1456
102
{ACAD_REACTORS
330
1455
102
}
330
1455
100
AcDbXrecord
280
     1
290
     1
  0
XRECORD
  5
1458
102
{ACAD_REACTORS
330
1457
102
}
330
1457
100
AcDbXrecord
280
     1
290
     1
  0
XRECORD
  5
145A
102
{ACAD_REACTORS
330
1459
102
}
330
1459
100
AcDbXrecord
280
     1
290
     1
  0
XRECORD
  5
145C
102
{ACAD_REACTORS
330
145B
102
}
330
145B
100
AcDbXrecord
280
     1
290
     1
  0
XRECORD
  5
145E
102
{ACAD_REACTORS
330
145D
102
}
330
145D
100
AcDbXrecord
280
     1
290
     1
  0
XRECORD
  5
1460
102
{ACAD_REACTORS
330
145F
102
}
330
145F
100
AcDbXrecord
280
     1
290
     1
  0
XRECORD
  5
1462
102
{ACAD_REACTORS
330
1461
102
}
330
1461
100
AcDbXrecord
280
     1
290
     1
  0
XRECORD
  5
1464
102
{ACAD_REACTORS
330
1463
102
}
330
1463
100
AcDbXrecord
280
     1
290
     1
  0
XRECORD
  5
1466
102
{ACAD_REACTORS
330
1465
102
}
330
1465
100
AcDbXrecord
280
     1
290
     1
  0
XRECORD
  5
1468
102
{ACAD_REACTORS
330
1467
102
}
330
1467
100
AcDbXrecord
280
     1
290
     1
  0
XRECORD
  5
146A
102
{ACAD_REACTORS
330
1469
102
}
330
1469
100
AcDbXrecord
280
     1
290
     1
  0
XRECORD
  5
146B
102
{ACAD_REACTORS
330
AF8
102
}
330
AF8
100
AcDbXrecord
280
     1
290
     1
  0
XRECORD
  5
146D
102
{ACAD_REACTORS
330
146C
102
}
330
146C
100
AcDbXrecord
280
     1
290
     1
  0
SORTENTSTABLE
  5
9AE
102
{ACAD_REACTORS
330
9AD
102
}
330
9AD
100
AcDbSortentsTable
330
9A4
  0
LAYOUT
  5
10A
102
{ACAD_REACTORS
330
107
102
}
330
107
100
AcDbPlotSettings
  1

  2
C:\PROGRAM FILES\ACAD2000\plotters\HP-5000PLT.pc3
  4

  6

 40
0.0
 41
0.0
 42
0.0
 43
0.0
 44
0.0
 45
0.0
 46
0.0
 47
0.0
 48
0.0
 49
0.0
140
0.0
141
0.0
142
1.0
143
1.0
 70
   688
 72
     0
 73
     0
 74
     5
  7
tps-s1_BLACK.ctb
 75
    16
147
1.0
 76
     0
 77
     2
 78
   300
148
0.0
149
0.0
100
AcDbLayout
  1
Layout1
 70
     0
 71
     1
 10
0.0
 20
0.0
 11
12.0
 21
9.0
 12
0.0
 22
0.0
 32
0.0
 14
1.000000000000000E+20
 24
1.000000000000000E+20
 34
1.000000000000000E+20
 15
-1.000000000000000E+20
 25
-1.000000000000000E+20
 35
-1.000000000000000E+20
146
0.0
 13
0.0
 23
0.0
 33
0.0
 16
1.0
 26
0.0
 36
0.0
 17
0.0
 27
1.0
 37
0.0
 76
     0
330
15
  0
LAYOUT
  5
109
102
{ACAD_REACTORS
330
107
102
}
330
107
100
AcDbPlotSettings
  1

  2
CutePDF Writer
  4
User119
  6
BORDER
 40
3.174999952316284
 41
3.174999952316284
 42
3.17498779296875
 43
3.17498779296875
 44
279.3999938964844
 45
431.8000183105469
 46
12.7
 47
16.002
 48
0.0
 49
0.0
140
0.0
141
0.0
142
1.0
143
0.5
 70
 11940
 72
     0
 73
     1
 74
     3
  7
tps-s1_BLACK.ctb
 75
     0
147
2.0
 76
     0
 77
     2
 78
   300
148
-5463.97467542001
149
106.5340460636664
100
AcDbLayout
  1
Model
 70
     1
 71
     0
 10
0.0
 20
0.0
 11
12.0
 21
9.0
 12
0.0
 22
0.0
 32
0.0
 14
0.0
 24
0.0
 34
0.0
 15
0.0
 25
0.0
 35
0.0
146
0.0
 13
0.0
 23
0.0
 33
0.0
 16
1.0
 26
0.0
 36
0.0
 17
0.0
 27
1.0
 37
0.0
 76
     0
330
18
331
13F2
  0
MATERIAL
  5
13FD
102
{ACAD_XDICTIONARY
360
13FE
102
}
102
{ACAD_REACTORS
330
13F4
102
}
330
13F4
100
AcDbMaterial
  1
ByBlock
 72
     0
 43
0.0208333333333333
 43
0.0
 43
0.0
 43
0.0
 43
0.0
 43
0.0208333333333333
 43
0.0
 43
0.0
 43
0.0
 43
0.0
 43
1.0
 43
0.0
 43
0.0
 43
0.0
 43
0.0
 43
1.0
 77
     0
 47
0.0208333333333333
 47
0.0
 47
0.0
 47
0.0
 47
0.0
 47
0.0208333333333333
 47
0.0
 47
0.0
 47
0.0
 47
0.0
 47
1.0
 47
0.0
 47
0.0
 47
0.0
 47
0.0
 47
1.0
171
     0
 49
0.0208333333333333
 49
0.0
 49
0.0
 49
0.0
 49
0.0
 49
0.0208333333333333
 49
0.0
 49
0.0
 49
0.0
 49
0.0
 49
1.0
 49
0.0
 49
0.0
 49
0.0
 49
0.0
 49
1.0
175
     0
142
0.0208333333333333
142
0.0
142
0.0
142
0.0
142
0.0
142
0.0208333333333333
142
0.0
142
0.0
142
0.0
142
0.0
142
1.0
142
0.0
142
0.0
142
0.0
142
0.0
142
1.0
179
     0
144
0.0208333333333333
144
0.0
144
0.0
144
0.0
144
0.0
144
0.0208333333333333
144
0.0
144
0.0
144
0.0
144
0.0
144
1.0
144
0.0
144
0.0
144
0.0
144
0.0
144
1.0
147
0.0208333333333333
147
0.0
147
0.0
147
0.0
147
0.0
147
0.0208333333333333
147
0.0
147
0.0
147
0.0
147
0.0
147
1.0
147
0.0
147
0.0
147
0.0
147
0.0
147
1.0
  0
MATERIAL
  5
13F5
102
{ACAD_XDICTIONARY
360
13F6
102
}
102
{ACAD_REACTORS
330
13F4
102
}
330
13F4
100
AcDbMaterial
  1
ByLayer
 72
     0
 43
0.0208333333333333
 43
0.0
 43
0.0
 43
0.0
 43
0.0
 43
0.0208333333333333
 43
0.0
 43
0.0
 43
0.0
 43
0.0
 43
1.0
 43
0.0
 43
0.0
 43
0.0
 43
0.0
 43
1.0
 77
     0
 47
0.0208333333333333
 47
0.0
 47
0.0
 47
0.0
 47
0.0
 47
0.0208333333333333
 47
0.0
 47
0.0
 47
0.0
 47
0.0
 47
1.0
 47
0.0
 47
0.0
 47
0.0
 47
0.0
 47
1.0
171
     0
 49
0.0208333333333333
 49
0.0
 49
0.0
 49
0.0
 49
0.0
 49
0.0208333333333333
 49
0.0
 49
0.0
 49
0.0
 49
0.0
 49
1.0
 49
0.0
 49
0.0
 49
0.0
 49
0.0
 49
1.0
175
     0
142
0.0208333333333333
142
0.0
142
0.0
142
0.0
142
0.0
142
0.0208333333333333
142
0.0
142
0.0
142
0.0
142
0.0
142
1.0
142
0.0
142
0.0
142
0.0
142
0.0
142
1.0
179
     0
144
0.0208333333333333
144
0.0
144
0.0
144
0.0
144
0.0
144
0.0208333333333333
144
0.0
144
0.0
144
0.0
144
0.0
144
1.0
144
0.0
144
0.0
144
0.0
144
0.0
144
1.0
147
0.0208333333333333
147
0.0
147
0.0
147
0.0
147
0.0
147
0.0208333333333333
147
0.0
147
0.0
147
0.0
147
0.0
147
1.0
147
0.0
147
0.0
147
0.0
147
0.0
147
1.0
  0
MATERIAL
  5
1405
102
{ACAD_XDICTIONARY
360
1406
102
}
102
{ACAD_REACTORS
330
13F4
102
}
330
13F4
100
AcDbMaterial
  1
Global
 72
     0
 43
0.0208333333333333
 43
0.0
 43
0.0
 43
0.0
 43
0.0
 43
0.0208333333333333
 43
0.0
 43
0.0
 43
0.0
 43
0.0
 43
1.0
 43
0.0
 43
0.0
 43
0.0
 43
0.0
 43
1.0
 77
     0
 47
0.0208333333333333
 47
0.0
 47
0.0
 47
0.0
 47
0.0
 47
0.0208333333333333
 47
0.0
 47
0.0
 47
0.0
 47
0.0
 47
1.0
 47
0.0
 47
0.0
 47
0.0
 47
0.0
 47
1.0
171
     0
 49
0.0208333333333333
 49
0.0
 49
0.0
 49
0.0
 49
0.0
 49
0.0208333333333333
 49
0.0
 49
0.0
 49
0.0
 49
0.0
 49
1.0
 49
0.0
 49
0.0
 49
0.0
 49
0.0
 49
1.0
175
     0
142
0.0208333333333333
142
0.0
142
0.0
142
0.0
142
0.0
142
0.0208333333333333
142
0.0
142
0.0
142
0.0
142
0.0
142
1.0
142
0.0
142
0.0
142
0.0
142
0.0
142
1.0
179
     0
144
0.0208333333333333
144
0.0
144
0.0
144
0.0
144
0.0
144
0.0208333333333333
144
0.0
144
0.0
144
0.0
144
0.0
144
1.0
144
0.0
144
0.0
144
0.0
144
0.0
144
1.0
147
0.0208333333333333
147
0.0
147
0.0
147
0.0
147
0.0
147
0.0208333333333333
147
0.0
147
0.0
147
0.0
147
0.0
147
1.0
147
0.0
147
0.0
147
0.0
147
0.0
147
1.0
  0
MLEADERSTYLE
  5
1447
102
{ACAD_REACTORS
330
1446
102
}
330
1446
100
AcDbMLeaderStyle
179
     2
170
     2
171
     1
172
     0
 90
        2
 40
0.0
 41
0.0
173
     1
 91
-1056964608
340
12
 92
       -2
290
     1
 42
0.09
291
     1
 43
0.36
  3
Standard
 44
0.18
300

342
10
174
     1
178
     6
175
     1
176
     0
 93
-1056964608
 45
0.18
292
     0
297
     0
 46
0.18
 94
-1056964608
 47
1.0
 49
1.0
140
1.0
293
     1
141
0.0
294
     1
177
     0
142
1.0
295
     1
296
     0
143
0.125
271
     0
272
     9
273
     9
  0
MLINESTYLE
  5
1B
102
{ACAD_REACTORS
330
E
102
}
330
E
100
AcDbMlineStyle
  2
STANDARD
 70
     0
  3

 62
     0
 51
90.0
 52
90.0
 71
     2
 49
0.5
 62
   256
  6
BYLAYER
 49
-0.5
 62
   256
  6
BYLAYER
  0
PLOTSETTINGS
  5
11C
102
{ACAD_REACTORS
330
108
102
}
330
108
100
AcDbPlotSettings
  1
hp-a-fit
  2
HP-5000PLT.pc3
  4
ANSI_A_(8.50_x_11.00_Inches)
  6
BORDER
 40
5.027082920074462
 41
5.027082920074462
 42
9.345077514648437
 43
5.11175537109375
 44
215.8999938964844
 45
279.3999938964844
 46
0.0
 47
0.0
 48
0.0
 49
0.0
140
0.0
141
0.0
142
1.0
143
1.509315367403764
 70
  1712
 72
     0
 73
     1
 74
     3
  7
tps-s1.ctb
 75
     0
147
0.6625520561154433
 76
     0
 77
     2
 78
   300
148
-12.7
149
-19.05
  0
PLOTSETTINGS
  5
11B
102
{ACAD_REACTORS
330
108
102
}
330
108
100
AcDbPlotSettings
  1
hp-B-1-1
  2
HP-5000PLT.pc3
  4
ANSI_B_(11.00_x_17.00_Inches)
  6
BORDER
 40
5.027082920074462
 41
5.027082920074462
 42
9.26043701171875
 43
5.027069091796875
 44
279.3999938964844
 45
431.7999877929687
 46
0.0
 47
0.0
 48
0.0
 49
0.0
140
0.0
141
0.0
142
1.0
143
1.0
 70
  1712
 72
     0
 73
     1
 74
     3
  7
tps-s1.ctb
 75
    16
147
1.0
 76
     0
 77
     2
 78
   300
148
-12.7
149
-19.05
  0
ACDBPLACEHOLDER
  5
106
102
{ACAD_REACTORS
330
105
102
}
330
105
  0
SCALE
  5
1425
102
{ACAD_REACTORS
330
1424
102
}
330
1424
100
AcDbScale
 70
     0
300
1:1
140
1.0
141
1.0
290
     1
  0
SCALE
  5
1426
102
{ACAD_REACTORS
330
1424
102
}
330
1424
100
AcDbScale
 70
     0
300
1:2
140
1.0
141
2.0
290
     0
  0
SCALE
  5
1427
102
{ACAD_REACTORS
330
1424
102
}
330
1424
100
AcDbScale
 70
     0
300
1:4
140
1.0
141
4.0
290
     0
  0
SCALE
  5
1428
102
{ACAD_REACTORS
330
1424
102
}
330
1424
100
AcDbScale
 70
     0
300
1:5
140
1.0
141
5.0
290
     0
  0
SCALE
  5
1429
102
{ACAD_REACTORS
330
1424
102
}
330
1424
100
AcDbScale
 70
     0
300
1:8
140
1.0
141
8.0
290
     0
  0
SCALE
  5
142A
102
{ACAD_REACTORS
330
1424
102
}
330
1424
100
AcDbScale
 70
     0
300
1:10
140
1.0
141
10.0
290
     0
  0
SCALE
  5
142B
102
{ACAD_REACTORS
330
1424
102
}
330
1424
100
AcDbScale
 70
     0
300
1:16
140
1.0
141
16.0
290
     0
  0
SCALE
  5
142C
102
{ACAD_REACTORS
330
1424
102
}
330
1424
100
AcDbScale
 70
     0
300
1:20
140
1.0
141
20.0
290
     0
  0
SCALE
  5
142D
102
{ACAD_REACTORS
330
1424
102
}
330
1424
100
AcDbScale
 70
     0
300
1:30
140
1.0
141
30.0
290
     0
  0
SCALE
  5
142E
102
{ACAD_REACTORS
330
1424
102
}
330
1424
100
AcDbScale
 70
     0
300
1:40
140
1.0
141
40.0
290
     0
  0
SCALE
  5
142F
102
{ACAD_REACTORS
330
1424
102
}
330
1424
100
AcDbScale
 70
     0
300
1:50
140
1.0
141
50.0
290
     0
  0
SCALE
  5
1430
102
{ACAD_REACTORS
330
1424
102
}
330
1424
100
AcDbScale
 70
     0
300
1:100
140
1.0
141
100.0
290
     0
  0
SCALE
  5
1431
102
{ACAD_REACTORS
330
1424
102
}
330
1424
100
AcDbScale
 70
     0
300
2:1
140
2.0
141
1.0
290
     0
  0
SCALE
  5
1432
102
{ACAD_REACTORS
330
1424
102
}
330
1424
100
AcDbScale
 70
     0
300
4:1
140
4.0
141
1.0
290
     0
  0
SCALE
  5
1433
102
{ACAD_REACTORS
330
1424
102
}
330
1424
100
AcDbScale
 70
     0
300
8:1
140
8.0
141
1.0
290
     0
  0
SCALE
  5
1434
102
{ACAD_REACTORS
330
1424
102
}
330
1424
100
AcDbScale
 70
     0
300
10:1
140
10.0
141
1.0
290
     0
  0
SCALE
  5
1435
102
{ACAD_REACTORS
330
1424
102
}
330
1424
100
AcDbScale
 70
     0
300
100:1
140
100.0
141
1.0
290
     0
  0
SCALE
  5
1436
102
{ACAD_REACTORS
330
1424
102
}
330
1424
100
AcDbScale
 70
     0
300
1/128" = 1'-0"
140
0.0078125
141
12.0
290
     0
  0
SCALE
  5
1437
102
{ACAD_REACTORS
330
1424
102
}
330
1424
100
AcDbScale
 70
     0
300
1/64" = 1'-0"
140
0.015625
141
12.0
290
     0
  0
SCALE
  5
1438
102
{ACAD_REACTORS
330
1424
102
}
330
1424
100
AcDbScale
 70
     0
300
1/32" = 1'-0"
140
0.03125
141
12.0
290
     0
  0
SCALE
  5
1439
102
{ACAD_REACTORS
330
1424
102
}
330
1424
100
AcDbScale
 70
     0
300
1/16" = 1'-0"
140
0.0625
141
12.0
290
     0
  0
SCALE
  5
143A
102
{ACAD_REACTORS
330
1424
102
}
330
1424
100
AcDbScale
 70
     0
300
3/32" = 1'-0"
140
0.09375
141
12.0
290
     0
  0
SCALE
  5
143B
102
{ACAD_REACTORS
330
1424
102
}
330
1424
100
AcDbScale
 70
     0
300
1/8" = 1'-0"
140
0.125
141
12.0
290
     0
  0
SCALE
  5
143C
102
{ACAD_REACTORS
330
1424
102
}
330
1424
100
AcDbScale
 70
     0
300
3/16" = 1'-0"
140
0.1875
141
12.0
290
     0
  0
SCALE
  5
143D
102
{ACAD_REACTORS
330
1424
102
}
330
1424
100
AcDbScale
 70
     0
300
1/4" = 1'-0"
140
0.25
141
12.0
290
     0
  0
SCALE
  5
143E
102
{ACAD_REACTORS
330
1424
102
}
330
1424
100
AcDbScale
 70
     0
300
3/8" = 1'-0"
140
0.375
141
12.0
290
     0
  0
SCALE
  5
143F
102
{ACAD_REACTORS
330
1424
102
}
330
1424
100
AcDbScale
 70
     0
300
1/2" = 1'-0"
140
0.5
141
12.0
290
     0
  0
SCALE
  5
1440
102
{ACAD_REACTORS
330
1424
102
}
330
1424
100
AcDbScale
 70
     0
300
3/4" = 1'-0"
140
0.75
141
12.0
290
     0
  0
SCALE
  5
1441
102
{ACAD_REACTORS
330
1424
102
}
330
1424
100
AcDbScale
 70
     0
300
1" = 1'-0"
140
1.0
141
12.0
290
     0
  0
SCALE
  5
1442
102
{ACAD_REACTORS
330
1424
102
}
330
1424
100
AcDbScale
 70
     0
300
1-1/2" = 1'-0"
140
1.5
141
12.0
290
     0
  0
SCALE
  5
1443
102
{ACAD_REACTORS
330
1424
102
}
330
1424
100
AcDbScale
 70
     0
300
3" = 1'-0"
140
3.0
141
12.0
290
     0
  0
SCALE
  5
1444
102
{ACAD_REACTORS
330
1424
102
}
330
1424
100
AcDbScale
 70
     0
300
6" = 1'-0"
140
6.0
141
12.0
290
     0
  0
SCALE
  5
1445
102
{ACAD_REACTORS
330
1424
102
}
330
1424
100
AcDbScale
 70
     0
300
1'-0" = 1'-0"
140
12.0
141
12.0
290
     0
  0
TABLESTYLE
  5
1423
102
{ACAD_XDICTIONARY
360
1476
102
}
102
{ACAD_REACTORS
330
1422
102
}
330
1422
100
AcDbTableStyle
280
     0
  3
Standard
 70
     0
 71
     0
 40
0.06
 41
0.06
280
     0
281
     0
  7
STANDARD
140
0.18
170
     2
 62
     0
 63
     7
283
     0
 90
      512
 91
        0
  1

274
    -2
284
     1
 64
     0
275
    -2
285
     1
 65
     0
276
    -2
286
     1
 66
     0
277
    -2
287
     1
 67
     0
278
    -2
288
     1
 68
     0
279
    -2
289
     1
 69
     0
  7
STANDARD
140
0.25
170
     5
 62
     0
 63
     7
283
     0
 90
      512
 91
        0
  1

274
    -2
284
     1
 64
     0
275
    -2
285
     1
 65
     0
276
    -2
286
     1
 66
     0
277
    -2
287
     1
 67
     0
278
    -2
288
     1
 68
     0
279
    -2
289
     1
 69
     0
  7
STANDARD
140
0.18
170
     5
 62
     0
 63
     7
283
     0
 90
      512
 91
        0
  1

274
    -2
284
     1
 64
     0
275
    -2
285
     1
 65
     0
276
    -2
286
     1
 66
     0
277
    -2
287
     1
 67
     0
278
    -2
288
     1
 68
     0
279
    -2
289
     1
 69
     0
  0
VISUALSTYLE
  5
1413
102
{ACAD_REACTORS
330
140D
102
}
330
140D
100
AcDbVisualStyle
  2
2dWireframe
 70
     4
177
     2
291
     0
 71
     0
176
     1
 72
     2
176
     1
 73
     0
176
     1
 90
        0
176
     1
 40
0.6
176
     1
 41
30.0
176
     1
 63
     7
421
 16777215
176
     1
 74
     1
176
     1
 91
        4
176
     1
 64
     7
176
     1
 65
   257
176
     1
 75
     1
176
     1
175
     1
176
     1
 42
1.0
176
     1
 92
        0
176
     1
 66
   257
176
     1
 43
1.0
176
     1
 76
     1
176
     1
 77
     6
176
     1
 78
     2
176
     1
 67
     7
176
     1
 79
     5
176
     1
170
     0
176
     1
171
     0
176
     1
290
     0
176
     1
 93
        1
176
     1
 44
0.0
176
     1
173
     0
176
     1
  0
VISUALSTYLE
  5
1415
102
{ACAD_REACTORS
330
140D
102
}
330
140D
100
AcDbVisualStyle
  2
3D Hidden
 70
     6
177
     2
291
     0
 71
     1
176
     1
 72
     2
176
     1
 73
     2
176
     1
 90
        0
176
     1
 40
0.6
176
     1
 41
30.0
176
     1
 63
     7
421
 16777215
176
     1
 74
     2
176
     1
 91
        2
176
     1
 64
     7
176
     1
 65
   257
176
     1
 75
     2
176
     1
175
     1
176
     1
 42
179.0
176
     1
 92
        0
176
     1
 66
   257
176
     1
 43
1.0
176
     1
 76
     1
176
     1
 77
     6
176
     1
 78
     2
176
     1
 67
     7
176
     1
 79
     3
176
     1
170
     0
176
     1
171
     0
176
     1
290
     0
176
     1
 93
        1
176
     1
 44
0.0
176
     1
173
     0
176
     1
  0
VISUALSTYLE
  5
1414
102
{ACAD_REACTORS
330
140D
102
}
330
140D
100
AcDbVisualStyle
  2
3dWireframe
 70
     5
177
     2
291
     0
 71
     0
176
     1
 72
     2
176
     1
 73
     0
176
     1
 90
        0
176
     1
 40
0.6
176
     1
 41
30.0
176
     1
 63
     7
421
 16777215
176
     1
 74
     1
176
     1
 91
        4
176
     1
 64
     7
176
     1
 65
   257
176
     1
 75
     1
176
     1
175
     1
176
     1
 42
1.0
176
     1
 92
        0
176
     1
 66
   257
176
     1
 43
1.0
176
     1
 76
     1
176
     1
 77
     6
176
     1
 78
     2
176
     1
 67
     7
176
     1
 79
     5
176
     1
170
     0
176
     1
171
     0
176
     1
290
     0
176
     1
 93
        1
176
     1
 44
0.0
176
     1
173
     0
176
     1
  0
VISUALSTYLE
  5
1412
102
{ACAD_REACTORS
330
140D
102
}
330
140D
100
AcDbVisualStyle
  2
Basic
 70
     7
177
     2
291
     1
 71
     1
176
     1
 72
     0
176
     1
 73
     1
176
     1
 90
        0
176
     1
 40
0.6
176
     1
 41
30.0
176
     1
 63
     7
421
 16777215
176
     1
 74
     0
176
     1
 91
        4
176
     1
 64
     7
176
     1
 65
   257
176
     1
 75
     1
176
     1
175
     1
176
     1
 42
1.0
176
     1
 92
        8
176
     1
 66
     7
176
     1
 43
1.0
176
     1
 76
     1
176
     1
 77
     6
176
     1
 78
     2
176
     1
 67
     7
176
     1
 79
     5
176
     1
170
     0
176
     1
171
     0
176
     1
290
     0
176
     1
 93
        1
176
     1
 44
0.0
176
     1
173
     0
176
     1
  0
VISUALSTYLE
  5
1419
102
{ACAD_REACTORS
330
140D
102
}
330
140D
100
AcDbVisualStyle
  2
Brighten
 70
    12
177
     2
291
     1
 71
     2
176
     1
 72
     2
176
     1
 73
     0
176
     1
 90
        0
176
     1
 40
0.6
176
     1
 41
30.0
176
     1
 63
     7
421
 16777215
176
     1
 74
     1
176
     1
 91
        4
176
     1
 64
     7
176
     1
 65
   257
176
     1
 75
     1
176
     1
175
     1
176
     1
 42
1.0
176
     1
 92
        8
176
     1
 66
     7
176
     1
 43
1.0
176
     1
 76
     1
176
     1
 77
     6
176
     1
 78
     2
176
     1
 67
     7
176
     1
 79
     5
176
     1
170
     0
176
     1
171
     0
176
     1
290
     0
176
     1
 93
        1
176
     1
 44
50.0
176
     1
173
     0
176
     1
  0
VISUALSTYLE
  5
141D
102
{ACAD_REACTORS
330
140D
102
}
330
140D
100
AcDbVisualStyle
  2
ColorChange
 70
    16
177
     2
291
     1
 71
     2
176
     1
 72
     2
176
     1
 73
     3
176
     1
 90
        0
176
     1
 40
0.6
176
     1
 41
30.0
176
     1
 63
     8
421
  8421504
176
     1
 74
     1
176
     1
 91
        4
176
     1
 64
     7
176
     1
 65
   257
176
     1
 75
     1
176
     1
175
     1
176
     1
 42
1.0
176
     1
 92
        8
176
     1
 66
     8
424
  8421504
176
     1
 43
1.0
176
     1
 76
     1
176
     1
 77
     6
176
     1
 78
     2
176
     1
 67
     7
176
     1
 79
     5
176
     1
170
     0
176
     1
171
     0
176
     1
290
     0
176
     1
 93
        1
176
     1
 44
0.0
176
     1
173
     0
176
     1
  0
VISUALSTYLE
  5
1416
102
{ACAD_REACTORS
330
140D
102
}
330
140D
100
AcDbVisualStyle
  2
Conceptual
 70
     9
177
     2
291
     0
 71
     3
176
     1
 72
     2
176
     1
 73
     0
176
     1
 90
        0
176
     1
 40
0.6
176
     1
 41
30.0
176
     1
 63
     7
421
 16777215
176
     1
 74
     2
176
     1
 91
        2
176
     1
 64
     7
176
     1
 65
   257
176
     1
 75
     1
176
     1
175
     1
176
     1
 42
179.0
176
     1
 92
        8
176
     1
 66
     7
176
     1
 43
1.0
176
     1
 76
     1
176
     1
 77
     6
176
     1
 78
     2
176
     1
 67
     7
176
     1
 79
     3
176
     1
170
     0
176
     1
171
     0
176
     1
290
     0
176
     1
 93
        1
176
     1
 44
0.0
176
     1
173
     0
176
     1
  0
VISUALSTYLE
  5
1418
102
{ACAD_REACTORS
330
140D
102
}
330
140D
100
AcDbVisualStyle
  2
Dim
 70
    11
177
     2
291
     1
 71
     2
176
     1
 72
     2
176
     1
 73
     0
176
     1
 90
        0
176
     1
 40
0.6
176
     1
 41
30.0
176
     1
 63
     7
421
 16777215
176
     1
 74
     1
176
     1
 91
        4
176
     1
 64
     7
176
     1
 65
   257
176
     1
 75
     1
176
     1
175
     1
176
     1
 42
1.0
176
     1
 92
        8
176
     1
 66
     7
176
     1
 43
1.0
176
     1
 76
     1
176
     1
 77
     6
176
     1
 78
     2
176
     1
 67
     7
176
     1
 79
     5
176
     1
170
     0
176
     1
171
     0
176
     1
290
     0
176
     1
 93
        1
176
     1
 44
-50.0
176
     1
173
     0
176
     1
  0
VISUALSTYLE
  5
1420
102
{ACAD_REACTORS
330
140D
102
}
330
140D
100
AcDbVisualStyle
  2
EdgeColorOff
 70
    22
177
     2
291
     1
 71
     2
176
     0
 72
     2
176
     0
 73
     0
176
     0
 90
        0
176
     0
 40
0.6
176
     0
 41
30.0
176
     0
 63
     7
421
 16777215
176
     0
 74
     1
176
     0
 91
        4
176
     0
 64
     7
176
     0
 65
   257
176
     0
 75
     1
176
     0
175
     1
176
     0
 42
1.0
176
     0
 92
        8
176
     2
 66
     7
176
     0
 43
1.0
176
     0
 76
     1
176
     0
 77
     6
176
     0
 78
     2
176
     0
 67
     7
176
     0
 79
     5
176
     0
170
     0
176
     0
171
     0
176
     0
290
     0
176
     0
 93
        1
176
     0
 44
0.0
176
     0
173
     0
176
     0
  0
VISUALSTYLE
  5
141C
102
{ACAD_REACTORS
330
140D
102
}
330
140D
100
AcDbVisualStyle
  2
Facepattern
 70
    15
177
     2
291
     1
 71
     2
176
     1
 72
     2
176
     1
 73
     0
176
     1
 90
        0
176
     1
 40
0.6
176
     1
 41
30.0
176
     1
 63
     7
421
 16777215
176
     1
 74
     1
176
     1
 91
        4
176
     1
 64
     7
176
     1
 65
   257
176
     1
 75
     1
176
     1
175
     1
176
     1
 42
1.0
176
     1
 92
        8
176
     1
 66
     7
176
     1
 43
1.0
176
     1
 76
     1
176
     1
 77
     6
176
     1
 78
     2
176
     1
 67
     7
176
     1
 79
     5
176
     1
170
     0
176
     1
171
     0
176
     1
290
     0
176
     1
 93
        1
176
     1
 44
0.0
176
     1
173
     0
176
     1
  0
VISUALSTYLE
  5
140E
102
{ACAD_REACTORS
330
140D
102
}
330
140D
100
AcDbVisualStyle
  2
Flat
 70
     0
177
     2
291
     1
 71
     2
176
     1
 72
     1
176
     1
 73
     1
176
     1
 90
        2
176
     1
 40
0.6
176
     1
 41
30.0
176
     1
 63
     7
421
 16777215
176
     1
 74
     0
176
     1
 91
        4
176
     1
 64
     7
176
     1
 65
   257
176
     1
 75
     1
176
     1
175
     1
176
     1
 42
1.0
176
     1
 92
        8
176
     1
 66
     7
176
     1
 43
1.0
176
     1
 76
     1
176
     1
 77
     6
176
     1
 78
     2
176
     1
 67
     7
176
     1
 79
     5
176
     1
170
     0
176
     1
171
     0
176
     1
290
     0
176
     1
 93
       13
176
     1
 44
0.0
176
     1
173
     0
176
     1
  0
VISUALSTYLE
  5
140F
102
{ACAD_REACTORS
330
140D
102
}
330
140D
100
AcDbVisualStyle
  2
FlatWithEdges
 70
     1
177
     2
291
     1
 71
     2
176
     1
 72
     1
176
     1
 73
     1
176
     1
 90
        2
176
     1
 40
0.6
176
     1
 41
30.0
176
     1
 63
     7
421
 16777215
176
     1
 74
     1
176
     1
 91
        4
176
     1
 64
     7
176
     1
 65
   257
176
     1
 75
     1
176
     1
175
     1
176
     1
 42
1.0
176
     1
 92
        0
176
     1
 66
   257
176
     1
 43
1.0
176
     1
 76
     1
176
     1
 77
     6
176
     1
 78
     2
176
     1
 67
     7
176
     1
 79
     5
176
     1
170
     0
176
     1
171
     0
176
     1
290
     0
176
     1
 93
       13
176
     1
 44
0.0
176
     1
173
     0
176
     1
  0
VISUALSTYLE
  5
1410
102
{ACAD_REACTORS
330
140D
102
}
330
140D
100
AcDbVisualStyle
  2
Gouraud
 70
     2
177
     2
291
     1
 71
     2
176
     1
 72
     2
176
     1
 73
     1
176
     1
 90
        2
176
     1
 40
0.6
176
     1
 41
30.0
176
     1
 63
     7
421
 16777215
176
     1
 74
     0
176
     1
 91
        4
176
     1
 64
     7
176
     1
 65
   257
176
     1
 75
     1
176
     1
175
     1
176
     1
 42
1.0
176
     1
 92
        0
176
     1
 66
     7
176
     1
 43
1.0
176
     1
 76
     1
176
     1
 77
     6
176
     1
 78
     2
176
     1
 67
     7
176
     1
 79
     5
176
     1
170
     0
176
     1
171
     0
176
     1
290
     0
176
     1
 93
       13
176
     1
 44
0.0
176
     1
173
     0
176
     1
  0
VISUALSTYLE
  5
1411
102
{ACAD_REACTORS
330
140D
102
}
330
140D
100
AcDbVisualStyle
  2
GouraudWithEdges
 70
     3
177
     2
291
     1
 71
     2
176
     1
 72
     2
176
     1
 73
     1
176
     1
 90
        2
176
     1
 40
0.6
176
     1
 41
30.0
176
     1
 63
     7
421
 16777215
176
     1
 74
     1
176
     1
 91
        4
176
     1
 64
     7
176
     1
 65
   257
176
     1
 75
     1
176
     1
175
     1
176
     1
 42
1.0
176
     1
 92
        0
176
     1
 66
   257
176
     1
 43
1.0
176
     1
 76
     1
176
     1
 77
     6
176
     1
 78
     2
176
     1
 67
     7
176
     1
 79
     5
176
     1
170
     0
176
     1
171
     0
176
     1
290
     0
176
     1
 93
       13
176
     1
 44
0.0
176
     1
173
     0
176
     1
  0
VISUALSTYLE
  5
141E
102
{ACAD_REACTORS
330
140D
102
}
330
140D
100
AcDbVisualStyle
  2
JitterOff
 70
    20
177
     2
291
     1
 71
     2
176
     0
 72
     2
176
     0
 73
     0
176
     0
 90
        0
176
     0
 40
0.6
176
     0
 41
30.0
176
     0
 63
     7
421
 16777215
176
     0
 74
     1
176
     0
 91
        4
176
     0
 64
     7
176
     0
 65
   257
176
     0
 75
     1
176
     0
175
     1
176
     0
 42
1.0
176
     0
 92
       10
176
     2
 66
     7
176
     0
 43
1.0
176
     0
 76
     1
176
     0
 77
     6
176
     0
 78
     2
176
     0
 67
     7
176
     0
 79
     5
176
     0
170
     0
176
     0
171
     0
176
     0
290
     0
176
     0
 93
        1
176
     0
 44
0.0
176
     0
173
     0
176
     0
  0
VISUALSTYLE
  5
141B
102
{ACAD_REACTORS
330
140D
102
}
330
140D
100
AcDbVisualStyle
  2
Linepattern
 70
    14
177
     2
291
     1
 71
     2
176
     1
 72
     2
176
     1
 73
     0
176
     1
 90
        0
176
     1
 40
0.6
176
     1
 41
30.0
176
     1
 63
     7
421
 16777215
176
     1
 74
     1
176
     1
 91
        4
176
     1
 64
     7
176
     1
 65
   257
176
     1
 75
     7
176
     1
175
     7
176
     1
 42
1.0
176
     1
 92
        8
176
     1
 66
     7
176
     1
 43
1.0
176
     1
 76
     1
176
     1
 77
     6
176
     1
 78
     2
176
     1
 67
     7
176
     1
 79
     5
176
     1
170
     0
176
     1
171
     0
176
     1
290
     0
176
     1
 93
        1
176
     1
 44
0.0
176
     1
173
     0
176
     1
  0
VISUALSTYLE
  5
141F
102
{ACAD_REACTORS
330
140D
102
}
330
140D
100
AcDbVisualStyle
  2
OverhangOff
 70
    21
177
     2
291
     1
 71
     2
176
     0
 72
     2
176
     0
 73
     0
176
     0
 90
        0
176
     0
 40
0.6
176
     0
 41
30.0
176
     0
 63
     7
421
 16777215
176
     0
 74
     1
176
     0
 91
        4
176
     0
 64
     7
176
     0
 65
   257
176
     0
 75
     1
176
     0
175
     1
176
     0
 42
1.0
176
     0
 92
        9
176
     2
 66
     7
176
     0
 43
1.0
176
     0
 76
     1
176
     0
 77
     6
176
     0
 78
     2
176
     0
 67
     7
176
     0
 79
     5
176
     0
170
     0
176
     0
171
     0
176
     0
290
     0
176
     0
 93
        1
176
     0
 44
0.0
176
     0
173
     0
176
     0
  0
VISUALSTYLE
  5
1417
102
{ACAD_REACTORS
330
140D
102
}
330
140D
100
AcDbVisualStyle
  2
Realistic
 70
     8
177
     2
291
     0
 71
     2
176
     1
 72
     2
176
     1
 73
     0
176
     1
 90
        0
176
     1
 40
0.6
176
     1
 41
30.0
176
     1
 63
     7
421
 16777215
176
     1
 74
     1
176
     1
 91
        0
176
     1
 64
     7
176
     1
 65
   257
176
     1
 75
     1
176
     1
175
     1
176
     1
 42
1.0
176
     1
 92
        8
176
     1
 66
     8
424
  7895160
176
     1
 43
1.0
176
     1
 76
     1
176
     1
 77
     6
176
     1
 78
     2
176
     1
 67
     7
176
     1
 79
     5
176
     1
170
     0
176
     1
171
     0
176
     1
290
     0
176
     1
 93
       13
176
     1
 44
0.0
176
     1
173
     0
176
     1
  0
VISUALSTYLE
  5
141A
102
{ACAD_REACTORS
330
140D
102
}
330
140D
100
AcDbVisualStyle
  2
Thicken
 70
    13
177
     2
291
     1
 71
     2
176
     1
 72
     2
176
     1
 73
     0
176
     1
 90
        0
176
     1
 40
0.6
176
     1
 41
30.0
176
     1
 63
     7
421
 16777215
176
     1
 74
     1
176
     1
 91
        4
176
     1
 64
     7
176
     1
 65
   257
176
     1
 75
     1
176
     1
175
     1
176
     1
 42
1.0
176
     1
 92
       12
176
     1
 66
     7
176
     1
 43
1.0
176
     1
 76
     1
176
     1
 77
     6
176
     1
 78
     2
176
     1
 67
     7
176
     1
 79
     5
176
     1
170
     0
176
     1
171
     0
176
     1
290
     0
176
     1
 93
        1
176
     1
 44
0.0
176
     1
173
     0
176
     1
  0
DICTIONARYVAR
  5
1472
102
{ACAD_REACTORS
330
146E
102
}
330
146E
100
DictionaryVariables
280
     0
  1
1:1
  0
DICTIONARYVAR
  5
1470
102
{ACAD_REACTORS
330
146E
102
}
330
146E
100
DictionaryVariables
280
     0
  1
STANDARD
  0
DICTIONARYVAR
  5
146F
102
{ACAD_REACTORS
330
146E
102
}
330
146E
100
DictionaryVariables
280
     0
  1
STANDARD
  0
DICTIONARYVAR
  5
1474
102
{ACAD_REACTORS
330
146E
102
}
330
146E
100
DictionaryVariables
280
     0
  1
1
  0
DICTIONARYVAR
  5
1475
102
{ACAD_REACTORS
330
146E
102
}
330
146E
100
DictionaryVariables
280
     0
  1
15
  0
DICTIONARYVAR
  5
1473
102
{ACAD_REACTORS
330
146E
102
}
330
146E
100
DictionaryVariables
280
     0
  1
0
  0
DICTIONARYVAR
  5
1471
102
{ACAD_REACTORS
330
146E
102
}
330
146E
100
DictionaryVariables
280
     0
  1
0
  0
XRECORD
  5
29E
102
{ACAD_REACTORS
330
29C
102
}
330
29C
100
AcDbXrecord
280
     1
330
0
  0
DICTIONARY
  5
13FE
330
13FD
100
AcDbDictionary
280
     1
281
     1
  3
BUMPTILE
360
1400
  3
DIFFUSETILE
360
13FF
  3
OPACITYTILE
360
1403
  3
REFLECTIONTILE
360
1402
  3
REFRACTIONTILE
360
1404
  3
SPECULARTILE
360
1401
  0
DICTIONARY
  5
13F6
330
13F5
100
AcDbDictionary
280
     1
281
     1
  3
BUMPTILE
360
13F8
  3
DIFFUSETILE
360
13F7
  3
OPACITYTILE
360
13FB
  3
REFLECTIONTILE
360
13FA
  3
REFRACTIONTILE
360
13FC
  3
SPECULARTILE
360
13F9
  0
DICTIONARY
  5
1406
330
1405
100
AcDbDictionary
280
     1
281
     1
  3
BUMPTILE
360
1408
  3
DIFFUSETILE
360
1407
  3
OPACITYTILE
360
140B
  3
REFLECTIONTILE
360
140A
  3
REFRACTIONTILE
360
140C
  3
SPECULARTILE
360
1409
  0
DICTIONARY
  5
1476
330
1423
100
AcDbDictionary
280
     1
281
     1
  3
ACAD_ROUNDTRIP_2008_TABLESTYLE_CELLSTYLEMAP
360
1477
  0
XRECORD
  5
1400
102
{ACAD_REACTORS
330
13FE
102
}
330
13FE
100
AcDbXrecord
280
     1
270
     1
271
     1
  0
XRECORD
  5
13FF
102
{ACAD_REACTORS
330
13FE
102
}
330
13FE
100
AcDbXrecord
280
     1
270
     1
271
     1
  0
XRECORD
  5
1403
102
{ACAD_REACTORS
330
13FE
102
}
330
13FE
100
AcDbXrecord
280
     1
270
     1
271
     1
  0
XRECORD
  5
1402
102
{ACAD_REACTORS
330
13FE
102
}
330
13FE
100
AcDbXrecord
280
     1
270
     1
271
     1
  0
XRECORD
  5
1404
102
{ACAD_REACTORS
330
13FE
102
}
330
13FE
100
AcDbXrecord
280
     1
270
     1
271
     1
  0
XRECORD
  5
1401
102
{ACAD_REACTORS
330
13FE
102
}
330
13FE
100
AcDbXrecord
280
     1
270
     1
271
     1
  0
XRECORD
  5
13F8
102
{ACAD_REACTORS
330
13F6
102
}
330
13F6
100
AcDbXrecord
280
     1
270
     1
271
     1
  0
XRECORD
  5
13F7
102
{ACAD_REACTORS
330
13F6
102
}
330
13F6
100
AcDbXrecord
280
     1
270
     1
271
     1
  0
XRECORD
  5
13FB
102
{ACAD_REACTORS
330
13F6
102
}
330
13F6
100
AcDbXrecord
280
     1
270
     1
271
     1
  0
XRECORD
  5
13FA
102
{ACAD_REACTORS
330
13F6
102
}
330
13F6
100
AcDbXrecord
280
     1
270
     1
271
     1
  0
XRECORD
  5
13FC
102
{ACAD_REACTORS
330
13F6
102
}
330
13F6
100
AcDbXrecord
280
     1
270
     1
271
     1
  0
XRECORD
  5
13F9
102
{ACAD_REACTORS
330
13F6
102
}
330
13F6
100
AcDbXrecord
280
     1
270
     1
271
     1
  0
XRECORD
  5
1408
102
{ACAD_REACTORS
330
1406
102
}
330
1406
100
AcDbXrecord
280
     1
270
     1
271
     1
  0
XRECORD
  5
1407
102
{ACAD_REACTORS
330
1406
102
}
330
1406
100
AcDbXrecord
280
     1
270
     1
271
     1
  0
XRECORD
  5
140B
102
{ACAD_REACTORS
330
1406
102
}
330
1406
100
AcDbXrecord
280
     1
270
     1
271
     1
  0
XRECORD
  5
140A
102
{ACAD_REACTORS
330
1406
102
}
330
1406
100
AcDbXrecord
280
     1
270
     1
271
     1
  0
XRECORD
  5
140C
102
{ACAD_REACTORS
330
1406
102
}
330
1406
100
AcDbXrecord
280
     1
270
     1
271
     1
  0
XRECORD
  5
1409
102
{ACAD_REACTORS
330
1406
102
}
330
1406
100
AcDbXrecord
280
     1
270
     1
271
     1
  0
CELLSTYLEMAP
  5
1477
102
{ACAD_REACTORS
330
1476
102
}
330
1476
100
AcDbCellStyleMap
 90
        3
300
CELLSTYLE
  1
TABLEFORMAT_BEGIN
 90
        5
170
     1
 91
        0
 92
    32768
 62
   257
 93
        1
300
CONTENTFORMAT
  1
CONTENTFORMAT_BEGIN
 90
        0
 91
        0
 92
      512
 93
        0
300

 40
0.0
140
1.0
 94
        5
 62
     0
340
10
144
0.25
309
CONTENTFORMAT_END
171
     0
 94
        0
309
TABLEFORMAT_END
  1
CELLSTYLE_BEGIN
 90
        1
 91
        1
300
_TITLE
309
CELLSTYLE_END
300
CELLSTYLE
  1
TABLEFORMAT_BEGIN
 90
        5
170
     1
 91
        0
 92
        0
 62
   257
 93
        1
300
CONTENTFORMAT
  1
CONTENTFORMAT_BEGIN
 90
        0
 91
        0
 92
      512
 93
        0
300

 40
0.0
140
1.0
 94
        5
 62
     0
340
10
144
0.18
309
CONTENTFORMAT_END
171
     0
 94
        0
309
TABLEFORMAT_END
  1
CELLSTYLE_BEGIN
 90
        2
 91
        1
300
_HEADER
309
CELLSTYLE_END
300
CELLSTYLE
  1
TABLEFORMAT_BEGIN
 90
        5
170
     1
 91
        0
 92
        0
 62
   257
 93
        1
300
CONTENTFORMAT
  1
CONTENTFORMAT_BEGIN
 90
        0
 91
        0
 92
      512
 93
        0
300

 40
0.0
140
1.0
 94
        2
 62
     0
340
10
144
0.18
309
CONTENTFORMAT_END
171
     0
 94
        0
309
TABLEFORMAT_END
  1
CELLSTYLE_BEGIN
 90
        3
 91
        2
300
_DATA
309
CELLSTYLE_END
  0
ENDSEC
  0
EOF
